Ивановский Торрент трекер
Яндекс.Погода
 

[Цитировать]
HUNTER

Страж Тьмы / Откровение / Revelation
Страна: Великобритания
Жанр: фэнтези
Год выпуска: 2001
Продолжительность: 01:46:23
Перевод: Профессиональный (двухголосый закадровый) Екатеринбург Арт
Cубтитры: нет
Оригинальная аудиодорожка: английский
Режиссер: Стюарт Урбан / Stuart Urban
В ролях: Теренс Стэмп, Джеймс Д'Арси, Наташа Уайтман, Лиам Каннингэм, Удо Кир, Диран Мегреблян
Описание: Со времен рождения Христа между силами света и тьмы идет ожесточенная битва за обладание древней священной реликвией. Известная как Локулус, она находилась во владении средневекового ордена тамплиеров, но бесследно исчезла. Попытки непосвященных проникнуть в тайну, которую хранит Локулус, неизбежно приводили смельчаков к ужасной мучительной гибели. Миллиардер Мартел с помощью современных научных методов и древних религиозных текстов пытается найти приносящий зло артефакт, чтобы уничтожить его до наступления парада планет. Поиски приводят Мартела в Малую Азию в заброшенный греческий храм. Но по его следам идет бессмертный прислужник сатаны, демонический «страж тьмы» Пренунциус. Если он первый завладеет Локулусом, то сможет изменить весь ход мировой истории.
Доп. информация: Диск из собственой колекции.
Бонусы: Трейлеры, док фильм, со съёмочной площадки, коментарии.
Сэмпл: http://sendfile.su/1157649
Тип релиза: DVD9 (Custom)
Контейнер: DVD-Video
Видео: PAL 16:9 (720x576) VBR Auto Pan&Scan
Аудио: Russian (Dolby AC3, 192 Кбит/сек, 2 ch)
Аудио 2: English (Dolby AC3, 448 Кбит/сек, 6 ch)
Аудио 3: English (Dolby AC3, 224 Кбит/сек, 2 ch)
Аудио 4: English (Dolby AC3, 224 Кбит/сек, 2 ch) коментарии

DVDInfo

Size: 7.60 Gb ( 7 973 414 KBytes ) - DVD-9
Enabled regions: 1, 2, 3, 4, 5, 6
VTS_01 :
Play Length: 00:00:07
Video: PAL 16:9 (720x576) VBR, Auto Pan&Scan
Audio:
English (Dolby AC3, 2 ch)
English (Dolby AC3, 6 ch)
VTS_02 :
Play Length: 00:00:20
Video: PAL 16:9 (720x576) VBR, Auto Pan&Scan
VTS_03 :
Play Length: 01:46:23
Video: PAL 16:9 (720x576) VBR, Auto Pan&Scan
Audio:
Russian (Dolby AC3, 2 ch)
English (Dolby AC3, 6 ch)
English (Dolby AC3, 2 ch)
English (Dolby AC3, 2 ch)
VTS_04 :
Play Length: 00:02:19
Video: PAL 16:9 (720x576) VBR, Auto Pan&Scan
Audio:
English (Dolby AC3, 2 ch)
VTS_05 :
Play Length: 00:24:06
Video: PAL 4:3 (720x576) VBR
Audio:
English (Dolby AC3, 2 ch)
VTS_06 :
Play Length: 00:10:54
Video: PAL 4:3 (720x576) VBR
Audio:
English (Dolby AC3, 2 ch)
VTS_07 :
Play Length: 00:09:49
Video: PAL 4:3 (720x576) VBR
Audio:
English (Dolby AC3, 2 ch)
VTS_08 :
Play Length: 00:07:14
Video: PAL 4:3 (720x576) VBR
Audio:
English (Dolby AC3, 2 ch)
VTS_09 :
Play Length: 00:15:49
Video: PAL 4:3 (720x576) VBR
Audio:
English (Dolby AC3, 2 ch)
VTS_10 :
Play Length: 00:00:25
Video: PAL 16:9 (720x576) VBR, Auto Pan&Scan
Audio:
English (Dolby AC3, 2 ch)
VTS_11 :
Play Length: 00:00:16
Video: PAL 16:9 (720x576) VBR, Auto Pan&Scan
Audio:
English (Dolby AC3, 2 ch)
VTS_12 :
Play Length: 00:00:30
Video: PAL 16:9 (720x576) VBR, Auto Pan&Scan
Audio:
English (Dolby AC3, 2 ch)
VTS_13 :
Play Length: 00:00:26
Video: PAL 16:9 (720x576) VBR, Auto Pan&Scan
Audio:
English (Dolby AC3, 2 ch)
VTS_14 :
Play Length: 00:00:25
Video: PAL 16:9 (720x576) VBR, Auto Pan&Scan
Audio:
English (Dolby AC3, 2 ch)
Menu Video:
PAL 16:9 (720x576) VBR
Auto Pan&Scan, Auto Letterboxed
Menu English Language Unit :
Root Menu

MediaInfo

Общее
Полное имя : J:\Revelation 2001\VIDEO_TS\VTS_03_1.VOB
Формат : MPEG-PS
Размер файла : 1024 Мбайт
Продолжительность : 23 м.
Режим общего битрейта : Переменный
Общий поток : 6216 Кбит/сек
Видео
Идентификатор : 224 (0xE0)
Формат : MPEG Video
Версия формата : Version 2
Профиль формата : Main@Main
Параметр BVOP формата : Да
Параметр матрицы формата : Выборочная
Параметр GOP формата : M=3, N=12
Продолжительность : 23 м.
Вид битрейта : Переменный
Битрейт : 5005 Кбит/сек
Максимальный битрейт : 7900 Кбит/сек
Ширина : 720 пикселей
Высота : 576 пикселей
Соотношение сторон : 16:9
Частота кадров : 25,000 кадров/сек
Стандарт вещания : PAL
Цветовое пространство : YUV
Субдискретизация насыщенности : 4:2:0
Битовая глубина : 8 бит
Тип развёртки : Чересстрочная
Порядок развёртки : Верхнее поле первое
Метод сжатия : С потерями
Бит/(Пиксели*Кадры) : 0.483
Размер потока : 824 Мбайт (81%)
Аудио #1
Идентификатор : 189 (0xBD)-128 (0x80)
Формат : AC-3
Формат/Информация : Audio Coding 3
Расширение режима : CM (complete main)
Параметр Endianness формата : Big
Режим смешивания : DVD-Video
Продолжительность : 23 м.
Вид битрейта : Постоянный
Битрейт : 192 Кбит/сек
Каналы : 2 канала
Расположение каналов : Front: L R
Частота : 48,0 КГц
Битовая глубина : 16 бит
Метод сжатия : С потерями
Задержка видео : -80 мс.
Размер потока : 31,6 Мбайт (3%)
Аудио #2
Идентификатор : 189 (0xBD)-129 (0x81)
Формат : AC-3
Формат/Информация : Audio Coding 3
Расширение режима : CM (complete main)
Параметр Endianness формата : Big
Режим смешивания : DVD-Video
Продолжительность : 23 м.
Вид битрейта : Постоянный
Битрейт : 448 Кбит/сек
Каналы : 6 каналов
Расположение каналов : Front: L C R, Side: L R, LFE
Частота : 48,0 КГц
Битовая глубина : 16 бит
Метод сжатия : С потерями
Задержка видео : -80 мс.
Размер потока : 73,8 Мбайт (7%)
Аудио #3
Идентификатор : 189 (0xBD)-130 (0x82)
Формат : AC-3
Формат/Информация : Audio Coding 3
Расширение режима : CM (complete main)
Параметр Endianness формата : Big
Режим смешивания : DVD-Video
Продолжительность : 23 м.
Вид битрейта : Постоянный
Битрейт : 224 Кбит/сек
Каналы : 2 канала
Расположение каналов : Front: L R
Частота : 48,0 КГц
Битовая глубина : 16 бит
Метод сжатия : С потерями
Задержка видео : -80 мс.
Размер потока : 36,9 Мбайт (4%)
Аудио #4
Идентификатор : 189 (0xBD)-131 (0x83)
Формат : AC-3
Формат/Информация : Audio Coding 3
Расширение режима : CM (complete main)
Параметр Endianness формата : Big
Режим смешивания : DVD-Video
Продолжительность : 23 м.
Вид битрейта : Постоянный
Битрейт : 224 Кбит/сек
Каналы : 2 канала
Расположение каналов : Front: L R
Частота : 48,0 КГц
Битовая глубина : 16 бит
Метод сжатия : С потерями
Задержка видео : -80 мс.
Размер потока : 36,9 Мбайт (4%)
Меню

Скриншоты меню



Показать сообщения:    

Текущее время: 11-Дек 06:10

Часовой пояс: UTC ± 0


Вы не можете начинать темы
Вы не можете отвечать на сообщения
Вы не можете редактировать свои сообщения
Вы не можете удалять свои сообщения
Вы не можете голосовать в опросах
Вы не можете прикреплять файлы к сообщениям
Вы не можете скачивать файлы

!ВНИМАНИЕ!
Сайт не предоставляет электронные версии произведений, а занимается лишь коллекционированием и каталогизацией ссылок, присылаемых и публикуемых на форуме нашими читателями. Если вы являетесь правообладателем какого-либо представленного материала и не желаете, чтобы ссылка на него находилась в нашем каталоге, свяжитесь с нами, и мы незамедлительно удалим ее. Файлы для обмена на трекере предоставлены пользователями сайта, и администрация не несет ответственности за их содержание. Просьба не заливать файлы, защищенные авторскими правами, а также файлы нелегального содержания!