Важное объявление!
У Нас Все раздачи мультитрекерные, при нуле пиров в релизах, можете смело вставать на закачку!
 
Автор Сообщение

HUNTER

Стаж:
4 года 8 месяцев
Сообщений:
62116

Репутация: 101

[+] [-]
Вне форума [Профиль] [ЛС]

Стражи Галактики / Guardians of the Galaxy
«Мстители спасают лишь Землю бренную, а эти ребята спасают Вселенную»
-
Производство: Marvel Enterprises, Marvel Studios, Moving Picture Company
Страна: США, Великобритания
Жанр: Фантастика, боевик, приключения
Год выпуска: 2014
Продолжительность: 02:00:51
Перевод:
• Профессиональный (полное дублирование) [Лицензия «Blu-ray EUR»]
• Оригинальная звуковая дорожка [Английский]
• Профессиональный (полное дублирование) [Казахский]
Язык субтитров: Русские (форсированные, полные), Английские (полные) | (внешние srt*)-Режиссер: Джеймс Ганн / James Gunn
Актеры: Крис Прэтт / Chris Pratt (Peter Quill), Зои Салдана / Zoe Saldana (Gamora), Дэйв Батиста / Dave Bautista (Drax), Брэдли Купер / Bradley Cooper (Rocket, озвучка), Вин Дизель, Ли Пейс / Lee Pace (Ronan), Майкл Рукер / Michael Rooker (Yondu Udonta), Карен Гиллан / Karen Gillan (Nebula), Гленн Клоуз / Glenn Close (Nova Prime), Джимон Хонсу / Djimon Hounsou (Korath), Джон Си Райли / John C. Reilly (Corpsman Dey), Бенисио Дель Торо / Benicio Del Toro (The Collector)
Описание фильма:
Отважному путешественнику Питеру Квиллу попадает в руки таинственный артефакт, принадлежащий могущественному и безжалостному злодею Ронану, строящему коварные планы по захвату Вселенной. Питер оказывается в центре межгалактической охоты, где жертва - он сам.
Единственный способ спасти свою жизнь - объединиться с четверкой нелюдимых изгоев: воинственным енотом по кличке Ракета, человекоподобным деревом Грутом, смертельно опасной Гаморой и одержимым жаждой мести Драксом, также известным как Разрушитель. Когда Квилл понимает, какой силой обладает украденный артефакт и какую опасность он представляет для вселенной, одиночка пойдет на все, чтобы сплотить случайных союзников для решающей битвы за судьбу галактики.-Рейтинги:
КиноПоиск: 8.040 (80 151)
IMDB : 8.40 (267 658)- -Качество видео: BDRip ( источник: Blu-ray EUR 1080p AVC DD5.1/ HDclub )
Формат видео: AVI
Видео: 720x304 (2.37:1), 23.976 fps, XviD build 73 ~ 2285 kbps avg, 0.44 bit/pixel
Аудио#1: 48 kHz/16-bit, AC3 Dolby Digital, 3/2 (L,C,R,l,r) + LFE ch, ~ 383 kbps | Russian
Аудио#2: 48 kHz/16-bit, AC3 Dolby Digital, 3/2 (L,C,R,l,r) + LFE ch, ~ 384 kbps | English
Аудио#3: 48 kHz/16-bit, AC3 Dolby Digital, 3/2 (L,C,R,l,r) + LFE ch, ~ 384 kbps | Kazakhstan
Скачать: Семпл-Размер: 2.91 GB (2/3 DVD-R)
-

Кадры из фильма

- -

MI

Полное имя : D:\Stragi_Galaktiki_BDRip\[2014]_Stragi_Galaktiki_BDRip.avi
Код: copyText_writeLink('this.parentNode.parentNode.nextSibling.nextSibling');
Код:
Формат : AVI
Формат/Информация : Audio Video Interleave
Профиль формата : OpenDML
Размер файла : 2,92 Гбайт
Продолжительность : 2 ч. 0 м.
Общий поток : 3457 Кбит/сек
Название фильма : Стражи Галактики /Guardians of the Galaxy (2014) BDRip от Rensler
Режиссёр : Release by Rensler
Жанр : Фантастика / Боевик / Приключения
Программа кодирования : VirtualDubModRus 1.5.10.2 (build 2542/release)
Библиотека кодирования : VirtualDubMod build 2542/release
Примечание : Movie
Видео
Идентификатор : 0
Формат : MPEG-4 Visual
Профиль формата : Advanced Simple@L5
Параметр BVOP формата : 2
Параметр QPel формата : Нет
Параметр GMC формата : Без точки перехода
Параметр матрицы формата : Выборочная
Идентификатор кодека : XVID
Идентификатор кодека/Подсказка : XviD
Продолжительность : 2 ч. 0 м.
Битрейт : 2285 Кбит/сек
Ширина : 720 пикселей
Высота : 304 пикселя
Соотношение сторон : 2,35:1
Частота кадров : 23,976 кадра/сек
Цветовое пространство : YUV
Субдискретизация насыщенности : 4:2:0
Битовая глубина : 8 бит
Тип развёртки : Прогрессивная
Метод сжатия : С потерями
Бит/(Пиксели*Кадры) : 0.435
Размер потока : 1,93 Гбайт (66%)
Библиотека кодирования : XviD 73
Аудио #1
Идентификатор : 1
Формат : AC-3
Формат/Информация : Audio Coding 3
Расширение режима : CM (complete main)
Идентификатор кодека : 2000
Продолжительность : 2 ч. 0 м.
Вид битрейта : Постоянный
Битрейт : 384 Кбит/сек
Каналы : 6 каналов
Расположение каналов : Front: L C R, Side: L R, LFE
Частота : 48,0 КГц
Битовая глубина : 16 бит
Метод сжатия : С потерями
Размер потока : 332 Мбайт (11%)
Выравнивание : Разделение по промежуткам
Продолжительность промежутка : 42 мс. (1,00 видеокадр)
Время предзагрузки промежутка : 500 мс.
Заголовок : Russian
Аудио #2
Идентификатор : 2
Формат : AC-3
Формат/Информация : Audio Coding 3
Расширение режима : CM (complete main)
Идентификатор кодека : 2000
Продолжительность : 2 ч. 0 м.
Вид битрейта : Постоянный
Битрейт : 384 Кбит/сек
Каналы : 6 каналов
Расположение каналов : Front: L C R, Side: L R, LFE
Частота : 48,0 КГц
Битовая глубина : 16 бит
Метод сжатия : С потерями
Размер потока : 332 Мбайт (11%)
Выравнивание : Разделение по промежуткам
Продолжительность промежутка : 42 мс. (1,00 видеокадр)
Время предзагрузки промежутка : 500 мс.
Заголовок : English
Аудио #3
Идентификатор : 3
Формат : AC-3
Формат/Информация : Audio Coding 3
Расширение режима : CM (complete main)
Идентификатор кодека : 2000
Продолжительность : 2 ч. 0 м.
Вид битрейта : Постоянный
Битрейт : 384 Кбит/сек
Каналы : 6 каналов
Расположение каналов : Front: L C R, Side: L R, LFE
Частота : 48,0 КГц
Битовая глубина : 16 бит
Метод сжатия : С потерями
Размер потока : 332 Мбайт (11%)
Выравнивание : Разделение по промежуткам
Продолжительность промежутка : 42 мс. (1,00 видеокадр)
Время предзагрузки промежутка : 500 мс.
Заголовок : Kazakhstan
[/spoiler]
-Источник:

_________________
Показать сообщения:    

Текущее время: Сегодня 20:00

Часовой пояс: GMT



Вы не можете начинать темы
Вы не можете отвечать на сообщения
Вы не можете редактировать свои сообщения
Вы не можете удалять свои сообщения
Вы не можете голосовать в опросах
Вы не можете прикреплять файлы к сообщениям
Вы не можете скачивать файлы
Наши партнеры: интернет магазин Ивановского трикотажа textilla.ru