Ивановский Торрент трекер
Яндекс.Погода
 

[Цитировать]
димитри37

Сто грамм для храбрости Год выпуска: 1976
Страна: СССР
Жанр: комедия
Продолжительность: 01:14:59-Режиссеры: Борис Бушмелев, Анатолий Маркелов, Георгий Щукин-В ролях:
Игорь Ясулович, Юрий Кузьменков, Юрий Белов, Рина Зелёная, Александр Пашутин, Михаил Светин, Георгий Кавтарадзе, Дима Шаройченко, Елена Кипшидзе, Владимир Басов, Валентина Титова, Нино Чхеидзе, Абессалом Лория, Борис Ципурия, Николай Гринько, Александр Белявский, Борислав Брондуков, Татьяна Васильева, Евгений Перов, Эммануил Геллер-Описание:
Дисциплинированный и собранный Ларичев идёт на работу. Увидев, что у него в запасе есть немного времени, он останавливается у киоска "Спортлото", чтобы купить и заполнить один билет лотереи. Заполняя билет, Ларичев обращает внимание на несвежего на вид типа, который уставился на него. Этот тип, представившийся Василием сначала попросил пятачок, всего лишь для того, чтобы доехать до дому, ведь у него обстоятельства ("Мы тут с ребятами гульнули, а я пиджак потерял…") Но потом Василий выкидывает всё новые и новые фортели: он требует проводить его домой на метро, но в метро проехать не удаётся, их выставляет дружинник…-
  • Фильм состоит из трёх новелл, объединённых общей темой пьянства и алкоголизма: «Какая наглость», «По законам гостеприимства», «100 грамм для храбрости».
  • Ларичев и Василий по сюжету фильма пытаются сесть в поезд на станции метро «Улица 1905 года».
  • По сюжету показывается мост метрополитена около станции метро Киевская, выходят Ларичев и Василий на станции метро Сокол. Работает Ларичев в сдании Гидропроекта, на пересечении Волоколамского и Ленинградского шоссе.
-IMDB: 6.1/10 (48 votes)
Кинопоиск: 7.134 (454)--Сэмпл--Качество: DVDRip (исходник BD>DVD9(custom))
Формат: AVI
Видео кодек: XviD
Аудио кодек: AC3
Видео: 720x304 (2.37:1), 23.976 fps, XviD, ~2375 kbps avg, 0.45 bit/pixel
Аудио: 48 kHz, AC3 Dolby Digital, 3/2 (L,C,R,l,r) + LFE ch, ~ 384 kbps

MediaInfo

General
Complete name : D:\100 грамм для храбрости.avi
Format : AVI
Format/Info : Audio Video Interleave
File size : 1.45 GiB
Duration : 1h 14mn
Overall bit rate : 2 768 Kbps
Writing application : VirtualDubMod 1.5.10.3 | www.virtualdub-fr.org || (build 2550/release)
Writing library : VirtualDubMod build 2550/release
Video
ID : 0
Format : MPEG-4 Visual
Format profile : Advanced Simple@L4
Format settings, BVOP : 1
Format settings, QPel : No
Format settings, GMC : No warppoints
Format settings, Matrix : Custom
Codec ID : XVID
Codec ID/Hint : XviD
Duration : 1h 14mn
Bit rate : 2 375 Kbps
Width : 720 pixels
Height : 304 pixels
Display aspect ratio : 2.35:1
Frame rate : 23.976 fps
Color space : YUV
Chroma subsampling : 4:2:0
Bit depth : 8 bits
Scan type : Progressive
Compression mode : Lossy
Bits/(Pixel*Frame) : 0.453
Stream size : 1.24 GiB (86%)
Writing library : XviD 64
Audio
ID : 1
Format : AC-3
Format/Info : Audio Coding 3
Mode extension : CM (complete main)
Codec ID : 2000
Duration : 1h 14mn
Bit rate mode : Constant
Bit rate : 384 Kbps
Channel(s) : 6 channels
Channel positions : Front: L C R, Side: L R, LFE
Sampling rate : 48.0 KHz
Bit depth : 16 bits
Compression mode : Lossy
Stream size : 206 MiB (14%)
Alignment : Split accross interleaves
Interleave, duration : 42 ms (1.00 video frame)
Interleave, preload duration : 500 ms

Скриншоты



Показать сообщения:    

Текущее время: 24-Окт 10:22

Часовой пояс: UTC - 1


Вы не можете начинать темы
Вы не можете отвечать на сообщения
Вы не можете редактировать свои сообщения
Вы не можете удалять свои сообщения
Вы не можете голосовать в опросах
Вы не можете прикреплять файлы к сообщениям
Вы не можете скачивать файлы

!ВНИМАНИЕ!
Сайт не предоставляет электронные версии произведений, а занимается лишь коллекционированием и каталогизацией ссылок, присылаемых и публикуемых на форуме нашими читателями. Если вы являетесь правообладателем какого-либо представленного материала и не желаете, чтобы ссылка на него находилась в нашем каталоге, свяжитесь с нами, и мы незамедлительно удалим ее. Файлы для обмена на трекере предоставлены пользователями сайта, и администрация не несет ответственности за их содержание. Просьба не заливать файлы, защищенные авторскими правами, а также файлы нелегального содержания!