Ивановский Торрент трекер
Яндекс.Погода
 

[Цитировать]
HUNTER

Столкновение с кометой! / Comet Collision!
Год выпуска: 2005
Страна: США
Жанр: Научно-популярный, документальный
Продолжительность: 00:50:33
Перевод: Авторский (одноголосый)
Перевод фильма: Hugh Jass
Озвучка: Slavnus Spacedust
Русские субтитры: нет
Режиссер: Рон Боумен / Ron BowmanОписание: Рано или поздно это случится… Земля столкнется с кометой… Последствия будут катастрофическими. Мы даже не знаем сейчас из чего состоят кометы, но нам точно известно, что эти объекты могут убить нас. Ученые ищут пути решения проблемы, проводя исследования. В 2005 году аппарат стоимостью 330 миллионов долларов был запущен в космос, его имя - Deep Impact…Качество: HDTVRip
Формат: AVI
Видео: XviD, 640x360, 16:9, 1157 Kbps, 23.976 fps
Аудио: AC-3, 192 Kbps constant, 48 KHz, 2 channels
Сэмпл: http://sendfile.su/1131508

MediaInfo

GeneralComplete name : M:\05. SpaceDust\01.Space\02.USA\2005 - Столкновение с кометой - Comet Collision\Comet Collision.aviFormat : AVIFormat/Info : Audio Video InterleaveFile size : 491 MiBDuration : 50mn 33sOverall bit rate : 1 358 KbpsWriting application : VirtualDubMod 1.5.10.2 (build 2540/release)Writing library : VirtualDubMod build 2540/release
VideoID : 0Format : MPEG-4 VisualFormat profile : Advanced Simple@L5Format settings, BVOP : 2Format settings, QPel : NoFormat settings, GMC : No warppointsFormat settings, Matrix : Default (H.263)Codec ID : XVIDCodec ID/Hint : XviDDuration : 50mn 33sBit rate : 1 157 KbpsWidth : 640 pixelsHeight : 360 pixelsDisplay aspect ratio : 16:9Frame rate : 23.976 fpsColor space : YUVChroma subsampling : 4:2:0Bit depth : 8 bitsScan type : ProgressiveCompression mode : LossyBits/(Pixel*Frame) : 0.209Stream size : 418 MiB (85%)Writing library : XviD 1.2.0.dev47 (UTC 2006-11-01)
AudioID : 1Format : AC-3Format/Info : Audio Coding 3Mode extension : CM (complete main)Format settings, Endianness : BigCodec ID : 2000Duration : 50mn 33sBit rate mode : ConstantBit rate : 192 KbpsChannel(s) : 2 channelsChannel positions : Front: L RSampling rate : 48.0 KHzBit depth : 16 bitsCompression mode : LossyStream size : 69.4 MiB (14%)Alignment : Split accross interleavesInterleave, duration : 42 ms (1.00 video frame)Interleave, preload duration : 500 ms

Скриншоты


Показать сообщения:    

Текущее время: 21-Окт 00:25

Часовой пояс: UTC - 1


Вы не можете начинать темы
Вы не можете отвечать на сообщения
Вы не можете редактировать свои сообщения
Вы не можете удалять свои сообщения
Вы не можете голосовать в опросах
Вы не можете прикреплять файлы к сообщениям
Вы не можете скачивать файлы

!ВНИМАНИЕ!
Сайт не предоставляет электронные версии произведений, а занимается лишь коллекционированием и каталогизацией ссылок, присылаемых и публикуемых на форуме нашими читателями. Если вы являетесь правообладателем какого-либо представленного материала и не желаете, чтобы ссылка на него находилась в нашем каталоге, свяжитесь с нами, и мы незамедлительно удалим ее. Файлы для обмена на трекере предоставлены пользователями сайта, и администрация не несет ответственности за их содержание. Просьба не заливать файлы, защищенные авторскими правами, а также файлы нелегального содержания!