Важное объявление!
У Нас Все раздачи мультитрекерные, при нуле пиров в релизах, можете смело вставать на закачку!
 
Автор Сообщение

HUNTER

Стаж:
4 года 7 месяцев
Сообщений:
61573

Репутация: 101

[+] [-]
Вне форума [Профиль] [ЛС]

Столкновение на Бут-Хилл / Разборки в Бут-Хилл / Showdown at Boot Hill
Страна: США
Студия: Regal Films
Жанр: вестерн
Год выпуска: 1958
Продолжительность: 01:12:02
Перевод: Авторский (одноголосый закадровый) Антон Карповский
Cубтитры: нет
Оригинальная аудиодорожка: английский
Режиссер: Джин Фаулер мл. / Gene Fowler Jr.
В ролях: Чарльз Бронсон, Роберт Хаттон, Джон Кэрредин , Кэрол Мэтьюз, Финтан Мэйлер, Пол Макси, Томас Браун Генри, Уильям Стивенс, Мартин Смит, Джо МакГуинн, Арджентина Брунетти
Описание: Охотник за головами Люк Уэлш застрелил разыскиваемого убийцу в городе, где тот был всеобщим любимцем . Местные жители отказываются подписывать документ подтверждающий личность застреленного, потому что без него за его голову не заплатят вознаграждение . Уэлш остаётся в городе, чтобы получить нужные ему доказательства .-- --Доп. Информация: Работа со звуком RammzeZ (огромное ему спасибо)
Сэмпл
Тип релиза: BDRip 720p
Контейнер: MKV
Видео: 1280x544 (2.35:1); 5727 kbps; 23.976 fps; 0.343 bpp
Аудио 1: Russian: DTS 1.0, 768kbps, 48.0kHz
Аудио 2: English: DTS 1.0, 768kbps, 48.0kHz

MediaInfo

Формат : Matroska
Версия формата : Version 4 / Version 2
Размер файла : 3,66 Гбайт
Продолжительность : 1 ч. 12 м.
Общий поток : 7267 Кбит/сек
Дата кодирования : UTC 2015-06-20 11:51:19
Программа кодирования : mkvmerge v8.0.0 ('Til The Day That I Die') 64bit
Библиотека кодирования : libebml v1.3.1 + libmatroska v1.4.2
DURATION : 01:12:02.048000000
NUMBER_OF_FRAMES : 405192
NUMBER_OF_BYTES : 414916668
_STATISTICS_WRITING_APP : mkvmerge v8.0.0 ('Til The Day That I Die') 64bit
_STATISTICS_WRITING_DATE_UTC : 2015-06-20 11:51:19
_STATISTICS_TAGS : BPS DURATION NUMBER_OF_FRAMES NUMBER_OF_BYTES
Видео
Идентификатор : 1
Формат : AVC
Формат/Информация : Advanced Video Codec
Профиль формата : High@L4.1
Параметр CABAC формата : Да
Параметр ReFrames формата : 6 кадров
Идентификатор кодека : V_MPEG4/ISO/AVC
Продолжительность : 1 ч. 12 м.
Битрейт : 5727 Кбит/сек
Ширина : 1280 пикселей
Высота : 544 пикселя
Соотношение сторон : 2,35:1
Режим частоты кадров : Постоянный
Частота кадров : 23,976 кадра/сек
Цветовое пространство : YUV
Субдискретизация насыщенности : 4:2:0
Битовая глубина : 8 бит
Тип развёртки : Прогрессивная
Бит/(Пиксели*Кадры) : 0.343
Размер потока : 2,81 Гбайт (77%)
Библиотека кодирования : x264 core 135 r2345 f0c1c53
Настройки программы : cabac=1 / ref=7 / deblock=1:-2:-2 / analyse=0x3:0x113 / me=umh / subme=11 / psy=1 / psy_rd=1.00:0.00 / mixed_ref=1 / me_range=64 / chroma_me=1 / trellis=2 / 8x8dct=1 / cqm=0 / deadzone=21,11 / fast_pskip=0 / chroma_qp_offset=-2 / threads=6 / lookahead_threads=1 / sliced_threads=0 / nr=0 / decimate=1 / interlaced=0 / bluray_compat=0 / constrained_intra=0 / bframes=10 / b_pyramid=1 / b_adapt=2 / b_bias=0 / direct=3 / weightb=1 / open_gop=0 / weightp=2 / keyint=240 / keyint_min=23 / scenecut=40 / intra_refresh=0 / rc_lookahead=64 / rc=2pass / mbtree=1 / bitrate=5727 / ratetol=1.0 / qcomp=0.60 / qpmin=10 / qpmax=51 / qpstep=4 / cplxblur=20.0 / qblur=0.5 / vbv_maxrate=62500 / vbv_bufsize=78125 / nal_hrd=none / ip_ratio=1.40 / aq=1:1.00
Язык : English
Default : Нет
Forced : Нет
DURATION : 01:12:01.734000000
NUMBER_OF_FRAMES : 103618
NUMBER_OF_BYTES : 3094445953
_STATISTICS_WRITING_APP : mkvmerge v8.0.0 ('Til The Day That I Die') 64bit
_STATISTICS_WRITING_DATE_UTC : 2015-06-20 11:51:19
_STATISTICS_TAGS : BPS DURATION NUMBER_OF_FRAMES NUMBER_OF_BYTES
Аудио #1
Идентификатор : 2
Формат : DTS
Формат/Информация : Digital Theater Systems
Режим : 16
Параметр Endianness формата : Big
Идентификатор кодека : A_DTS
Продолжительность : 1 ч. 12 м.
Вид битрейта : Постоянный
Битрейт : 768 Кбит/сек
Каналы : 1 канал
Расположение каналов : Front: C
Частота : 48,0 КГц
Битовая глубина : 16 бит
Метод сжатия : С потерями
Размер потока : 396 Мбайт (11%)
Язык : Russian
Default : Нет
Forced : Нет
Аудио #2
Идентификатор : 3
Формат : DTS
Формат/Информация : Digital Theater Systems
Режим : 16
Параметр Endianness формата : Big
Идентификатор кодека : A_DTS
Продолжительность : 1 ч. 12 м.
Вид битрейта : Постоянный
Битрейт : 768 Кбит/сек
Каналы : 1 канал
Расположение каналов : Front: C
Частота : 48,0 КГц
Битовая глубина : 24 бит
Метод сжатия : С потерями
Размер потока : 396 Мбайт (11%)
Язык : English
Default : Нет
Forced : Нет
Меню
00:00:00.000 : en:00:00:00.000
00:08:59.497 : en:00:08:59.497
00:22:24.301 : en:00:22:24.301
00:29:56.712 : en:00:29:56.712
00:38:10.830 : en:00:38:10.830
00:51:30.337 : en:00:51:30.337
01:00:48.979 : en:01:00:48.979
01:04:24.402 : en:01:04:24.402
01:11:50.890 : en:01:11:50.890

Скриншоты


_________________
Показать сообщения:    

Текущее время: Сегодня 14:39

Часовой пояс: GMT



Вы не можете начинать темы
Вы не можете отвечать на сообщения
Вы не можете редактировать свои сообщения
Вы не можете удалять свои сообщения
Вы не можете голосовать в опросах
Вы не можете прикреплять файлы к сообщениям
Вы не можете скачивать файлы
Наши партнеры: интернет магазин Ивановского трикотажа textilla.ru