Важное объявление!
У Нас Все раздачи мультитрекерные, при нуле пиров в релизах, можете смело вставать на закачку!
 
Автор Сообщение

HUNTER

Стаж:
4 года 7 месяцев
Сообщений:
61614

Репутация: 101

[+] [-]
Вне форума [Профиль] [ЛС]

Столичное животное / Animali metropolitani / Urban Animals
Страна: Италия
Жанр: комедия, фантастика
Год выпуска: 1987
Продолжительность: 01:31:30
Перевод: Авторский (одноголосый закадровый) Мудров
Cубтитры: итальянские
Оригинальная аудиодорожка: итальянский
Режиссер: Стено / Steno
В ролях: Дональд Плезенс, Зента Бергер, Нинетто Даволи, Галеаццо Бенти, Энцо Браски, Лео Гульотта, Карина Хафф, Маурицио Феррини, Маурицио Микели, Мара Венье
Описание: 3300-ый год. Планета Земля населена разумными обезьянами. Археологи-приматы находят видеозапись, сделанную в 1987-ом году и, с ее помощью, пытаются выяснить, как "хомо сапиенс" смог снова эволюционировать в обезьяну.
Доп. информация: Русская звуковая дорожка взята с этой раздачи [url=viewtopic.php?t=5250971]http://rutracker.org/forum/viewtopic.php?t=5250971[/url] автору большое спасибо.
При пересборе двд были использованы программы:
VirtualDubMod_1_5_10_2_All_inclusive - извлечение русской дорожки из рипа
PgcDemux - разделение компонентов диска на файлы
Muxman - мультиплексирование и авторинг DVD
VobBlanker - реавторинг DVD
http://sendfile.su/1261548
Бонусы: Биографии.
Сэмпл: http://sendfile.su/1261548
Тип релиза: DVD5 (Custom)
Контейнер: DVD-Video
Видео: PAL 16:9 (720x576) VBR Auto Letterboxed
Аудио: Russian (Dolby AC3, 192 Кбит/сек, 2 ch)
Аудио 2: Italiano (Dolby AC3, 192 Кбит/сек, 2 ch)
Формат субтитров: prerendered (DVD/IDX+SUB)

DVDInfo

Title: Animali metropolitani_1987
Size: 3.94 Gb ( 4 133 928,00 KBytes ) - DVD-5
Enabled regions: 1, 2, 3, 4, 5, 6, 7, 8
VTS_01 :
Play Length: 01:31:30
Video: PAL 16:9 (720x576) VBR, Auto Letterboxed
Audio:
Russian, AC3, 2/0 (L,R) ch, 192 kbps, Delay 0 mSec
Italiano, AC3, 2/0 (L,R) ch, 192 kbps, Delay 0 mSec
Subtitles:
Italiano
VTS_02 :
Play Length: 00:00:00+00:00:00+00:00:00
Video: PAL 4:3 (720x576) VBR
Subtitles:
English
* Menus Information *
VIDEO_TS Menu
Video:
PAL 4:3 (720x576) VBR
Audio:
Not specified (Dolby AC3, 6 ch)
Italiano Language Unit :
Title Menu
VTS_01 Menu
Video:
PAL 4:3 (720x576) VBR
Audio:
Not specified (Dolby AC3, 2 ch)
Italiano Language Unit :
Root Menu
VTS_02 Menu
Video:
PAL 4:3 (720x576) VBR
Italiano Language Unit :
Root Menu

MediaInfo

Общее
Полное имя : D:\DVD готовые\Animali metropolitani_1987\VIDEO_TS\VTS_01_1.VOB
Формат : MPEG-PS
Размер файла : 1024 Мбайт
Продолжительность : 23 м.
Режим общего битрейта : Переменный
Общий поток : 5975 Кбит/сек
Видео
Идентификатор : 224 (0xE0)
Формат : MPEG Video
Версия формата : Version 2
Профиль формата : Main@Main
Параметр BVOP формата : Да
Параметр матрицы формата : Выборочная
Параметр GOP формата : M=3, N=12
Структура изображения : Frame
Продолжительность : 23 м.
Вид битрейта : Переменный
Битрейт : 5472 Кбит/сек
Максимальный битрейт : 8000 Кбит/сек
Ширина : 720 пикселей
Высота : 576 пикселей
Соотношение сторон : 16:9
Частота кадров : 25,000 кадров/сек
Стандарт вещания : PAL
Цветовое пространство : YUV
Субдискретизация насыщенности : 4:2:0
Битовая глубина : 8 бит
Тип развёртки : Чересстрочная
Порядок развёртки : Верхнее поле первое
Метод сжатия : С потерями
Бит/(Пиксели*Кадры) : 0.528
Временной код первого кадра : 10:00:00:00
Оригинал временного кода : Group of pictures header
GOP, открыто/закрыто : Закрыто
Размер потока : 938 Мбайт (92%)
Аудио #1
Идентификатор : 189 (0xBD)-128 (0x80)
Формат : AC-3
Формат/Информация : Audio Coding 3
Расширение режима : CM (complete main)
Параметр Endianness формата : Big
Режим смешивания : DVD-Video
Продолжительность : 23 м.
Вид битрейта : Постоянный
Битрейт : 192 Кбит/сек
Каналы : 2 канала
Расположение каналов : Front: L R
Частота : 48,0 КГц
Метод сжатия : С потерями
Размер потока : 32,9 Мбайт (3%)
Аудио #2
Идентификатор : 189 (0xBD)-129 (0x81)
Формат : AC-3
Формат/Информация : Audio Coding 3
Расширение режима : CM (complete main)
Параметр Endianness формата : Big
Режим смешивания : DVD-Video
Продолжительность : 23 м.
Вид битрейта : Постоянный
Битрейт : 192 Кбит/сек
Каналы : 2 канала
Расположение каналов : Front: L R
Частота : 48,0 КГц
Метод сжатия : С потерями
Размер потока : 32,9 Мбайт (3%)
Текст
Идентификатор : 189 (0xBD)-32 (0x20)
Формат : RLE
Формат/Информация : Run-length encoding
Режим смешивания : DVD-Video
Продолжительность : 23 м.
Задержка видео : 440 мс.
Меню

Скриншоты меню


_________________
Показать сообщения:    

Текущее время: Сегодня 13:41

Часовой пояс: GMT



Вы не можете начинать темы
Вы не можете отвечать на сообщения
Вы не можете редактировать свои сообщения
Вы не можете удалять свои сообщения
Вы не можете голосовать в опросах
Вы не можете прикреплять файлы к сообщениям
Вы не можете скачивать файлы
Наши партнеры: интернет магазин Ивановского трикотажа textilla.ru