Ивановский Торрент трекер
Яндекс.Погода
 

[Цитировать]
HUNTER

Старуха / The Crone - Год выпуска: 2013
Страна: Япония, Гонконг
Жанр: ужасы
Продолжительность: 01:11:12
Перевод: Любительский (двухголосый) [DeadSno & den904]
Субтитры: English -В ролях: Хонока Мики, Шиори Китаяма, Кауро Гото, Аими Накамура, Ёсинори Окада
Режиссёр: Ейсуке Наито - -Аяне, Нанами и Маюко - идолы, поющие в девчачьей группе "Джерси Гёл". Однажды они становятся участниками телевизионного шоу о паранормальных явления, в поисках которых отправляются в заброшенный дом престарелых. Вскоре после того, как девушки побывали в этом здании, они покрываются всякими странными фурункулами и язвами... а затем, приходят к выводу, что стали жертвами проклятия старухи, мстящей за свои мучения...
-Качество: BDRip 1080p
Формат: MKV
Видео кодек: AVC
Аудио кодек: AC-3,DTS
Видео: AVC, 1920x1080, 8951 Кбит/сек, 29.970 кадр/сек
Аудио 1: AC-3, 192 Кбит/сек, 2 канала(ов), 48,0 КГц (Russian)
Аудио 2: DTS, 1509 Кбит/сек, 6 канала(ов), 48,0 КГц (English)-

Рейтинг:

Рейтинг:

MediaInfo:

General
Unique ID : 209477132497735730492087496480313387374 (0x9D97D405D820C81C9E050013039D296E)
Complete name : C:\Users\Fr1sk\Desktop\Рипы\The.Crone.2013.BDRip.1080p..mkv
Format : Matroska
Format version : Version 4 / Version 2
File size : 5.40 GiB
Duration : 1h 11mn
Overall bit rate : 10.9 Mbps
Movie name : Release Group CINEMANIA
Encoded date : UTC 2013-11-26 14:33:49
Writing application : mkvmerge v6.5.0 ('Isn't she lovely') built on Oct 20 2013 12:50:05
Writing library : libebml v1.3.0 + libmatroska v1.4.1
Video
ID : 1
Format : AVC
Format/Info : Advanced Video Codec
Format profile : High@L4.1
Format settings, CABAC : Yes
Format settings, ReFrames : 4 frames
Codec ID : V_MPEG4/ISO/AVC
Duration : 1h 11mn
Bit rate : 8 951 Kbps
Width : 1 920 pixels
Height : 1 080 pixels
Display aspect ratio : 16:9
Frame rate mode : Constant
Frame rate : 23.976 fps
Color space : YUV
Chroma subsampling : 4:2:0
Bit depth : 8 bits
Scan type : Progressive
Bits/(Pixel*Frame) : 0.180
Stream size : 4.45 GiB (82%)
Title : Release Group CINEMANIA
Language : English
Default : Yes
Forced : No
Audio #1
ID : 2
Format : AC-3
Format/Info : Audio Coding 3
Mode extension : CM (complete main)
Format settings, Endianness : Big
Codec ID : A_AC3
Duration : 1h 11mn
Bit rate mode : Constant
Bit rate : 192 Kbps
Channel(s) : 2 channels
Channel positions : Front: L R
Sampling rate : 48.0 KHz
Bit depth : 16 bits
Compression mode : Lossy
Stream size : 97.8 MiB (2%)
Title : den904 and DeadSno
Language : Russian
Default : Yes
Forced : Yes
Audio #2
ID : 3
Format : DTS
Format/Info : Digital Theater Systems
Mode : 16
Format settings, Endianness : Big
Codec ID : A_DTS
Duration : 1h 11mn
Bit rate mode : Constant
Bit rate : 1 509 Kbps
Channel(s) : 6 channels
Channel positions : Front: L C R, Side: L R, LFE
Sampling rate : 48.0 KHz
Bit depth : 24 bits
Compression mode : Lossy
Stream size : 768 MiB (14%)
Language : Japanese
Default : No
Forced : No
Text
ID : 4
Format : UTF-8
Codec ID : S_TEXT/UTF8
Codec ID/Info : UTF-8 Plain Text
Language : English
Default : No
Forced : No
Menu
00:00:00.000 : en:00:00:00.000
00:04:55.712 : en:00:04:55.712
00:11:33.985 : en:00:11:33.985
00:18:35.364 : en:00:18:35.364
00:23:46.383 : en:00:23:46.383
00:32:13.306 : en:00:32:13.306
00:39:16.688 : en:00:39:16.688
00:46:32.540 : en:00:46:32.540
00:50:26.815 : en:00:50:26.815
00:58:00.143 : en:00:58:00.143
01:04:05.925 : en:01:04:05.925
01:08:26.477 : en:01:08:26.477

Скриншоты:

Показать сообщения:    

Текущее время: 18-Окт 02:56

Часовой пояс: UTC - 1


Вы не можете начинать темы
Вы не можете отвечать на сообщения
Вы не можете редактировать свои сообщения
Вы не можете удалять свои сообщения
Вы не можете голосовать в опросах
Вы не можете прикреплять файлы к сообщениям
Вы не можете скачивать файлы

!ВНИМАНИЕ!
Сайт не предоставляет электронные версии произведений, а занимается лишь коллекционированием и каталогизацией ссылок, присылаемых и публикуемых на форуме нашими читателями. Если вы являетесь правообладателем какого-либо представленного материала и не желаете, чтобы ссылка на него находилась в нашем каталоге, свяжитесь с нами, и мы незамедлительно удалим ее. Файлы для обмена на трекере предоставлены пользователями сайта, и администрация не несет ответственности за их содержание. Просьба не заливать файлы, защищенные авторскими правами, а также файлы нелегального содержания!