Ивановский Торрент трекер
Яндекс.Погода
 

[Цитировать]
димитри37

Станционный смотритель
Страна: СССР
Жанр: драма
Год выпуска: 1972
Продолжительность: 01:03:50
Режиссёр: Сергей Соловьев
В ролях:
Марианна Кушнирова - Дуняша
Николай Пастухов - Самсон Вырин
Никита Михалков - Минский
Геннадий Шумский - рассказчик
Валентина Ананьина - жена пивовара
Наталья Пярн - дама
Описание: По одноименной повести А.С. Пушкина.

Качество видео: DVDRip-AVC
Формат видео: MKV
Видео: x264 (High@L4.1); Анаморф 720@768x576, Display aspect ratio 4:3, 25.000 fps, 2500 Kbps
Аудио 1: Оригинал: AC-3; 16 bits 48 Khz; 5.1ch 448 Kbps; CBR
Аудио 2: Оригинал: AC-3; 16 bits 48 Khz; 1.0ch 224 Kbps; CBR

MediaInfo

-

x264 log

x264.exe: --pass 2 --bitrate 2500 --profile high --level 4.1 --ref 16 --deblock -2:-2 --merange 48 --bframes 13 --direct auto --b-adapt 2 --trellis 2 --no-fast-pskip --no-dct-decimate --psy-rd 1.00:0.15 --qcomp 0.65 --vbv-maxrate 50000 --vbv-bufsize 62500 --partitions all --subme 11 --me umh --rc-lookahead 60 --colorprim bt470bg --transfer bt470bg --colormatrix bt470bg --sar 16:15 --stats "K:\Станционный смотритель.1972.log" --output "K:\Станционный смотритель.1972.mkv" "L:\Temp\2247.avs"
avs [info]: 720x576p 16:15 @ 25/1 fps (cfr)
x264 [info]: using SAR=16/15
x264 [info]: using cpu capabilities: MMX2 SSE2Fast SSSE3 SSE4.2
x264 [info]: profile High, level 4.1
x264 [info]: frame I:513 Avg QP:15.17 size: 63257
x264 [info]: frame P:19229 Avg QP:18.02 size: 28315
x264 [info]: frame B:76018 Avg QP:21.77 size: 8159
x264 [info]: consecutive B-frames: 1.5% 1.7% 9.2% 7.2% 8.3% 63.9% 5.4% 0.7% 1.1% 0.3% 0.2% 0.4% 0.0% 0.1%
x264 [info]: mb I I16..4: 13.6% 78.0% 8.5%
x264 [info]: mb P I16..4: 1.0% 18.0% 0.6% P16..4: 26.5% 25.5% 15.4% 2.7% 0.4% skip: 9.9%
x264 [info]: mb B I16..4: 0.1% 3.8% 0.1% B16..8: 33.8% 16.8% 2.5% direct: 9.9% skip:33.0% L0:38.7% L1:35.7% BI:25.7%
x264 [info]: 8x8 transform intra:92.5% inter:59.5%
x264 [info]: direct mvs spatial:97.5% temporal:2.5%
x264 [info]: coded y,uvDC,uvAC intra: 92.0% 63.3% 25.4% inter: 36.8% 23.2% 6.6%
x264 [info]: i16 v,h,dc,p: 64% 10% 7% 19%
x264 [info]: i8 v,h,dc,ddl,ddr,vr,hd,vl,hu: 12% 12% 26% 6% 7% 8% 8% 9% 12%
x264 [info]: i4 v,h,dc,ddl,ddr,vr,hd,vl,hu: 14% 8% 12% 7% 14% 14% 11% 10% 10%
x264 [info]: i8c dc,h,v,p: 26% 42% 21% 11%
x264 [info]: Weighted P-Frames: Y:33.4% UV:9.0%
x264 [info]: ref P L0: 32.1% 10.9% 14.7% 8.1% 6.2% 5.0% 4.4% 2.7% 2.6% 2.3% 2.2% 2.0% 1.9% 1.8% 1.7% 1.3%
x264 [info]: ref B L0: 70.6% 13.7% 4.0% 2.6% 1.6% 1.7% 1.2% 0.9% 0.7% 0.7% 0.6% 0.7% 0.5% 0.4% 0.2%
x264 [info]: ref B L1: 92.4% 7.6%
x264 [info]: kb/s:2500.31
x264 [total]: encoded 95760 frames, 12.62 fps, 2500.32 kb/s
-General
Unique ID : 198057653078964099780164764456651961483 (0x95008437E6B0925E880426CDCEE9B48B)
Complete name : Станционный смотритель.1972.mkv
Format : Matroska
Format version : Version 2
File size : 1.42 GiB
Duration : 1h 3mn
Overall bit rate : 3 174 Kbps
Movie name : «Станционный смотритель»
Encoded date : UTC 2013-06-12 10:41:08
Writing application : mkvmerge v5.8.0 ('No Sleep / Pillow') built on Sep 2 2012 15:37:04
Writing library : libebml v1.2.3 + libmatroska v1.3.0
Comment : DVDRip-AVC
Original date released : June 12th 2013
Encoded by : imgeorgest®
Video
ID : 1
Format : AVC
Format/Info : Advanced Video Codec
Format profile : High@L4.1
Format settings, CABAC : Yes
Format settings, ReFrames : 16 frames
Codec ID : V_MPEG4/ISO/AVC
Duration : 1h 3mn
Bit rate : 2 500 Kbps
Width : 720 pixels
Height : 576 pixels
Display aspect ratio : 4:3
Frame rate : 25.000 fps
Standard : PAL
Color space : YUV
Chroma subsampling : 4:2:0
Bit depth : 8 bits
Scan type : Progressive
Bits/(Pixel*Frame) : 0.241
Stream size : 1.09 GiB (77%)
Title : Станционный смотритель.1972
Writing library : x264 core 130 r2273 b3065e6
Encoding settings : cabac=1 / ref=16 / deblock=1:-2:-2 / analyse=0x3:0x133 / me=umh / subme=11 / psy=1 / psy_rd=1.00:0.15 / mixed_ref=1 / me_range=48 / chroma_me=1 / trellis=2 / 8x8dct=1 / cqm=0 / deadzone=21,11 / fast_pskip=0 / chroma_qp_offset=-3 / threads=12 / lookahead_threads=3 / sliced_threads=0 / nr=0 / decimate=0 / interlaced=0 / bluray_compat=0 / constrained_intra=0 / bframes=13 / b_pyramid=2 / b_adapt=2 / b_bias=0 / direct=3 / weightb=1 / open_gop=0 / weightp=2 / keyint=250 / keyint_min=25 / scenecut=40 / intra_refresh=0 / rc_lookahead=60 / rc=2pass / mbtree=1 / bitrate=2500 / ratetol=1.0 / qcomp=0.65 / qpmin=0 / qpmax=69 / qpstep=4 / cplxblur=20.0 / qblur=0.5 / vbv_maxrate=50000 / vbv_bufsize=62500 / nal_hrd=none / ip_ratio=1.40 / aq=1:1.00
Language : Russian
Default : Yes
Forced : No
Color primaries : BT.470-6 System B, BT.470-6 System G, BT.601-6 625, BT.1358 625, BT.1700 625 PAL, BT.1700 625 SECAM
Transfer characteristics : BT.470-6 System B, BT.470-6 System G
Matrix coefficients : BT.470-6 System B, BT.470-6 System G, BT.601-6 625, BT.1358 625, BT.1700 625 PAL, BT.1700 625 SECAM, IEC 61966-2-4 601
Audio #1
ID : 2
Format : AC-3
Format/Info : Audio Coding 3
Mode extension : CM (complete main)
Codec ID : A_AC3
Duration : 1h 3mn
Bit rate mode : Constant
Bit rate : 448 Kbps
Channel(s) : 6 channels
Channel positions : Front: L C R, Side: L R, LFE
Sampling rate : 48.0 KHz
Bit depth : 16 bits
Compression mode : Lossy
Stream size : 205 MiB (14%)
Title : Оригинал: AC-3; 16 bits 48 Khz; 6ch 448 Kbps; CBR
Language : Russian
Default : Yes
Forced : No
Audio #2
ID : 3
Format : AC-3
Format/Info : Audio Coding 3
Mode extension : CM (complete main)
Codec ID : A_AC3
Duration : 1h 3mn
Bit rate mode : Constant
Bit rate : 224 Kbps
Channel(s) : 1 channel
Channel positions : Front: C
Sampling rate : 48.0 KHz
Bit depth : 16 bits
Compression mode : Lossy
Stream size : 102 MiB (7%)
Title : Оригинал: AC-3; 16 bits 48 Khz; 1.0ch 224 Kbps; CBR
Language : Russian
Default : No
Forced : No

Скриншоты

-

Исходник

-Сравнение с оригиналом:
http://screenshotcomparison.com/comparison/28068
Сравнение с раздачей:
http://rutracker.org/forum/viewtopic.php?t=290051
http://screenshotcomparison.com/comparison/28069-
Показать сообщения:    

Текущее время: 17-Окт 06:57

Часовой пояс: UTC - 1


Вы не можете начинать темы
Вы не можете отвечать на сообщения
Вы не можете редактировать свои сообщения
Вы не можете удалять свои сообщения
Вы не можете голосовать в опросах
Вы не можете прикреплять файлы к сообщениям
Вы не можете скачивать файлы

!ВНИМАНИЕ!
Сайт не предоставляет электронные версии произведений, а занимается лишь коллекционированием и каталогизацией ссылок, присылаемых и публикуемых на форуме нашими читателями. Если вы являетесь правообладателем какого-либо представленного материала и не желаете, чтобы ссылка на него находилась в нашем каталоге, свяжитесь с нами, и мы незамедлительно удалим ее. Файлы для обмена на трекере предоставлены пользователями сайта, и администрация не несет ответственности за их содержание. Просьба не заливать файлы, защищенные авторскими правами, а также файлы нелегального содержания!