Ивановский Торрент трекер
Яндекс.Погода
 

[Цитировать]
HUNTER

Становление континентов
BBC: Rise of the Continents
7.867 Год выпуска: 2013
Страна: Великобритания
Жанр: Документальный
Продолжительность: 00:58:14 + 00:58:56 + 00:58:48 + 00:59:05
Перевод: Одноголосый (закадровый)
Русские субтитры: нет-Режиссер: Ариф Нурмохамед / Arif Nurmohamed-Описание: 250 миллионов лет назад Земля выглядела как планета из другой солнечной системы. Материки, которые известны нам сегодня, были сосредоточены в одном гигантском массиве суши - Пангее, которую окружал Панталасса, необъятный океан.Но около 200 миллионов лет назад, этот суперконтинент начал разваливаться на части. Стали формироваться новые океанические бассейны, подниматься к небесам горы. И за миллионы лет из остатков старого суперконтинента произошли семь новых уникальных континентов.Мир вокруг нас полон свидетельств создания земли. В этом фильме из четырёх частей, профессор Иэн Стюарт раскроет древнее прошлое. Он покажет моменты образования ярких символов наших континентов, зарождения их невероятного экономического богатства и эволюции, изменившей ход человеческой истории.- -Качество: HDTVRip
Формат: AVI
Видео: 720x400 (16:9), 25,000 fps, XviD build 65, ~1688 kbps avg, 0.20 bit/pixel
Аудио: 48.0 kHz, AC3 Dolby Digital, 2/0 (L,R) ch, ~192.00 kbps avg

MediaInfo

ОбщееПолное имя : A:\Фильмы\BBC.Rise.of.the.Continents.(2013).HDTVRip\Africa.2013.HDTVRip.aviФормат : AVIФормат/Информация : Audio Video InterleaveРазмер файла : 703 МбайтПродолжительность : 58 м.Общий поток : 1688 Кбит/секНазвание фильма : Africa.2013.HDTVRipРежиссёр : rip by maygliПрограмма кодирования : VirtualDubModRus 1.5.10.2 (build 2542/release)Правообладатель : www.starbit.org (RG Rulya74)
ВидеоИдентификатор : 0Формат : MPEG-4 VisualПрофиль формата : Advanced Simple@L5Параметр BVOP формата : 1Параметр QPel формата : НетПараметр GMC формата : Без точки переходаПараметр матрицы формата : ВыборочнаяИдентификатор кодека : XVIDИдентификатор кодека/Подсказка : XviDПродолжительность : 58 м.Битрейт : 1486 Кбит/секШирина : 720 пикселейВысота : 400 пикселейСоотношение сторон : 16:9Частота кадров : 25,000 кадров/секЦветовое пространство : YUVСубдискретизация насыщенности : 4:2:0Битовая глубина : 8 битТип развёртки : ПрогрессивнаяМетод сжатия : С потерямиБит/(Пиксели*Кадры) : 0.206Размер потока : 619 Мбайт (88%)Библиотека кодирования : XviD 65
АудиоИдентификатор : 1Формат : AC-3Формат/Информация : Audio Coding 3Расширение режима : CM (complete main)Параметр Endianness формата : BigИдентификатор кодека : 2000Продолжительность : 58 м.Вид битрейта : ПостоянныйБитрейт : 192 Кбит/секКаналы : 2 каналаРасположение каналов : Front: L RЧастота : 48,0 КГцБитовая глубина : 16 битМетод сжатия : С потерямиРазмер потока : 80,0 Мбайт (11%)Выравнивание : Разделение по промежуткамПродолжительность промежутка : 40 мс. (1,00 видеокадр)Время предзагрузки промежутка : 500 мс.Заголовок : Профессиональный (одноголосый закадровый)
ОбщееПолное имя : A:\Фильмы\BBC.Rise.of.the.Continents.(2013).HDTVRip\Australia.2013.HDTVRip.aviФормат : AVIФормат/Информация : Audio Video InterleaveРазмер файла : 703 МбайтПродолжительность : 58 м.Общий поток : 1668 Кбит/секНазвание фильма : Australia.2013.HDTVRipРежиссёр : rip by maygliПрограмма кодирования : VirtualDubModRus 1.5.10.2 (build 2542/release)Правообладатель : www.starbit.org (RG Rulya74)
ВидеоИдентификатор : 0Формат : MPEG-4 VisualПрофиль формата : Advanced Simple@L5Параметр BVOP формата : 1Параметр QPel формата : НетПараметр GMC формата : Без точки переходаПараметр матрицы формата : ВыборочнаяИдентификатор кодека : XVIDИдентификатор кодека/Подсказка : XviDПродолжительность : 58 м.Битрейт : 1466 Кбит/секШирина : 720 пикселейВысота : 400 пикселейСоотношение сторон : 16:9Частота кадров : 25,000 кадров/секЦветовое пространство : YUVСубдискретизация насыщенности : 4:2:0Битовая глубина : 8 битТип развёртки : ПрогрессивнаяМетод сжатия : С потерямиБит/(Пиксели*Кадры) : 0.204Размер потока : 618 Мбайт (88%)Библиотека кодирования : XviD 65
АудиоИдентификатор : 1Формат : AC-3Формат/Информация : Audio Coding 3Расширение режима : CM (complete main)Параметр Endianness формата : BigИдентификатор кодека : 2000Продолжительность : 58 м.Вид битрейта : ПостоянныйБитрейт : 192 Кбит/секКаналы : 2 каналаРасположение каналов : Front: L RЧастота : 48,0 КГцБитовая глубина : 16 битМетод сжатия : С потерямиРазмер потока : 81,0 Мбайт (12%)Выравнивание : Разделение по промежуткамПродолжительность промежутка : 40 мс. (1,00 видеокадр)Время предзагрузки промежутка : 500 мс.Заголовок : Профессиональный (одноголосый закадровый)
ОбщееПолное имя : A:\Фильмы\BBC.Rise.of.the.Continents.(2013).HDTVRip\Eurasia.2013.HDTVRip.aviФормат : AVIФормат/Информация : Audio Video InterleaveРазмер файла : 703 МбайтПродолжительность : 59 м.Общий поток : 1663 Кбит/секНазвание фильма : Eurasia.2013.HDTVRipРежиссёр : rip by maygliПрограмма кодирования : VirtualDubModRus 1.5.10.2 (build 2542/release)Правообладатель : www.starbit.org (RG Rulya74)
ВидеоИдентификатор : 0Формат : MPEG-4 VisualПрофиль формата : Advanced Simple@L5Параметр BVOP формата : 1Параметр QPel формата : НетПараметр GMC формата : Без точки переходаПараметр матрицы формата : ВыборочнаяИдентификатор кодека : XVIDИдентификатор кодека/Подсказка : XviDПродолжительность : 59 м.Битрейт : 1461 Кбит/секШирина : 720 пикселейВысота : 400 пикселейСоотношение сторон : 16:9Частота кадров : 25,000 кадров/секЦветовое пространство : YUVСубдискретизация насыщенности : 4:2:0Битовая глубина : 8 битТип развёртки : ПрогрессивнаяМетод сжатия : С потерямиБит/(Пиксели*Кадры) : 0.203Размер потока : 618 Мбайт (88%)Библиотека кодирования : XviD 65
АудиоИдентификатор : 1Формат : AC-3Формат/Информация : Audio Coding 3Расширение режима : CM (complete main)Параметр Endianness формата : BigИдентификатор кодека : 2000Продолжительность : 59 м.Вид битрейта : ПостоянныйБитрейт : 192 Кбит/секКаналы : 2 каналаРасположение каналов : Front: L RЧастота : 48,0 КГцБитовая глубина : 16 битМетод сжатия : С потерямиРазмер потока : 81,2 Мбайт (12%)Выравнивание : Разделение по промежуткамПродолжительность промежутка : 40 мс. (1,00 видеокадр)Время предзагрузки промежутка : 500 мс.Заголовок : Профессиональный (одноголосый закадровый)
ОбщееПолное имя : A:\Фильмы\BBC.Rise.of.the.Continents.(2013).HDTVRip\The Americas.2013.HDTVRip.aviФормат : AVIФормат/Информация : Audio Video InterleaveРазмер файла : 704 МбайтПродолжительность : 58 м.Общий поток : 1673 Кбит/секНазвание фильма : The Americas.2013.HDTVRipРежиссёр : rip by maygliПрограмма кодирования : VirtualDubModRus 1.5.10.2 (build 2542/release)Правообладатель : www.starbit.org (RG Rulya74)
ВидеоИдентификатор : 0Формат : MPEG-4 VisualПрофиль формата : Advanced Simple@L5Параметр BVOP формата : 1Параметр QPel формата : НетПараметр GMC формата : Без точки переходаПараметр матрицы формата : ВыборочнаяИдентификатор кодека : XVIDИдентификатор кодека/Подсказка : XviDПродолжительность : 58 м.Битрейт : 1471 Кбит/секШирина : 720 пикселейВысота : 400 пикселейСоотношение сторон : 16:9Частота кадров : 25,000 кадров/секЦветовое пространство : YUVСубдискретизация насыщенности : 4:2:0Битовая глубина : 8 битТип развёртки : ПрогрессивнаяМетод сжатия : С потерямиБит/(Пиксели*Кадры) : 0.204Размер потока : 619 Мбайт (88%)Библиотека кодирования : XviD 65
АудиоИдентификатор : 1Формат : AC-3Формат/Информация : Audio Coding 3Расширение режима : CM (complete main)Параметр Endianness формата : BigИдентификатор кодека : 2000Продолжительность : 58 м.Вид битрейта : ПостоянныйБитрейт : 192 Кбит/секКаналы : 2 каналаРасположение каналов : Front: L RЧастота : 48,0 КГцБитовая глубина : 16 битМетод сжатия : С потерямиРазмер потока : 80,8 Мбайт (11%)Выравнивание : Разделение по промежуткамПродолжительность промежутка : 40 мс. (1,00 видеокадр)Время предзагрузки промежутка : 500 мс.

Список серий

1. Africa / Африка
2. Australia / Австралия
3. The Americas / Северная и Южная Америки
4. Eurasia / Евразия

Скриншоты




Показать сообщения:    

Текущее время: 11-Дек 13:15

Часовой пояс: UTC ± 0


Вы не можете начинать темы
Вы не можете отвечать на сообщения
Вы не можете редактировать свои сообщения
Вы не можете удалять свои сообщения
Вы не можете голосовать в опросах
Вы не можете прикреплять файлы к сообщениям
Вы не можете скачивать файлы

!ВНИМАНИЕ!
Сайт не предоставляет электронные версии произведений, а занимается лишь коллекционированием и каталогизацией ссылок, присылаемых и публикуемых на форуме нашими читателями. Если вы являетесь правообладателем какого-либо представленного материала и не желаете, чтобы ссылка на него находилась в нашем каталоге, свяжитесь с нами, и мы незамедлительно удалим ее. Файлы для обмена на трекере предоставлены пользователями сайта, и администрация не несет ответственности за их содержание. Просьба не заливать файлы, защищенные авторскими правами, а также файлы нелегального содержания!