Важное объявление!
У Нас Все раздачи мультитрекерные, при нуле пиров в релизах, можете смело вставать на закачку!
Статистика раздачи
Размер:     |    Зарегистрирован:     |    Скачан:     |   
Нет
 
     
 
 
Автор Сообщение

димитри37

Стаж:
4 года 4 месяца
Сообщений:
1236

Репутация: 127

[+] [-]
Вне форума [Профиль] [ЛС]

Станица, Серии 01-12
Наименование: Станица
Год выпуска:2013
Производство:Россия, компания "Профит"
Жанр:Детектив, драма, криминал
Продолжительность:12 х 00:45:00
Серии: 01-12
Режиссёр:Владимир Шевельков
В ролях:Ирина Ефремова (II), Владимир Шевельков, Мария Баева, Дмитрий Оленцов, Юрий Коноплянников, Нина Усатова, Руслан Ягудин, Сергей Никоненко, Евгений Сидихин, Мария Шукшина, Максим Дрозд, Александра Лупашко, Андрей Стоянов, Павел Трубинер
Описание: 2010 год. Кубанская станица Лощинская, оазис процветания среди кризисной разрухи: плотно засеяны поля, знатно ухожены фермы, население трудоустроено и сыто. Что это – колхозный капитализм или когда-то обещанный коммунизм? Ни то и ни другое. Это – блистательный семейный бизнес лихой казачки Надежды Волковой, крестной мамы здешних мест. И, как всякий успешный бизнес, поднятый с нуля в 90-е, он замешан на крови...В один прекрасный день в станицу Лощинская приезжает Марина Горобец, в недавнем прошлом – замужняя женщина, директор молочного хозяйства в соседнем районе, а нынче – безработная и разведенная красавица в расцвете лет. Приезжает она, чтобы навестить дочь Светлану, которая учится в местном профучилище; тут-то и выясняется, что девочки в станице нет. Директор училища, местные милиционеры, одноклассницы Светы на прямые вопросы не отвечают, ведут себя агрессивно, словом, явно что-то скрывают. Не добившись помощи от официальных структур, Марина решает искать дочь самостоятельно. Она еще не знает, что на самом деле станицей руководит структура неофициальная - клан бизнесменов Волковых. Основано на реальных событиях. Убийство 12 человек в доме кущевского фермера Сервера Аметова произошло в ноябре 2010 года. По данным следствия, преступление совершили члены банды Сергея Цапка. Обвиняемые по делу уже предстали перед судом. В настоящее время процесс над бандой Цапка проходит в Краснодарском краевом суде.
Качество: HDTVRip [ HDTV 1080I by Серый1779]
Формат: AVI
Видео кодек: XviD
Аудио кодек: MP3
Видео: 624x352 (1.77:1), 25 fps, XviD MPEG-4 ~846 kbps avg, 0.15 bit/pixel
Аудио: 48 kHz, MPEG Layer 3, 2 ch, ~128.00 kbps avg

MI

Общее
Полное имя : D:\Торренты\Станица_SatRip_by_Дрек_R.G _Сериалы\Станица_01_SatRip_by_Дрек_R.G _Сериалы.avi
Формат : AVI
Формат/Информация : Audio Video Interleave
Размер файла : 361 Мбайт
Продолжительность : 51 м.
Общий поток : 985 Кбит/сек
Программа кодирования : VirtualDubModRus 1.5.10.2 (build 2542/release)
Библиотека кодирования : VirtualDubMod build 2542/release
Видео
Идентификатор : 0
Формат : MPEG-4 Visual
Профиль формата : Advanced Simple@L5
Параметр BVOP формата : 2
Параметр QPel формата : Нет
Параметр GMC формата : Без точки перехода
Параметр матрицы формата : Выборочная
Идентификатор кодека : XVID
Идентификатор кодека/Подсказка : XviD
Продолжительность : 51 м.
Битрейт : 847 Кбит/сек
Ширина : 624 пикселя
Высота : 352 пикселя
Соотношение сторон : 16:9
Частота кадров : 25,000 кадров/сек
Цветовое пространство : YUV
Субдискретизация насыщенности : 4:2:0
Битовая глубина : 8 бит
Тип развёртки : Прогрессивная
Метод сжатия : С потерями
Бит/(Пиксели*Кадры) : 0.154
Размер потока : 310 Мбайт (86%)
Библиотека кодирования : XviD 64
Аудио
Идентификатор : 1
Формат : MPEG Audio
Версия формата : Version 1
Профиль формата : Layer 3
Режим : Joint stereo
Расширение режима : MS Stereo
Идентификатор кодека : 55
Идентификатор кодека/Подсказка : MP3
Продолжительность : 51 м.
Вид битрейта : Постоянный
Битрейт : 128 Кбит/сек
Каналы : 2 канала
Частота : 48,0 КГц
Метод сжатия : С потерями
Размер потока : 46,9 Мбайт (13%)
Выравнивание : Соединение по промежуткам
Продолжительность промежутка : 40 мс. (1,00 видеокадр)
Время предзагрузки промежутка : 504 мс.
Библиотека кодирования : LAME3.99
Настройки программы : -m j -V 4 -q 2 -lowpass 17 -b 128

Скриншоты





Показать сообщения:    

Текущее время: Сегодня 22:27

Часовой пояс: GMT



Вы не можете начинать темы
Вы не можете отвечать на сообщения
Вы не можете редактировать свои сообщения
Вы не можете удалять свои сообщения
Вы не можете голосовать в опросах
Вы не можете прикреплять файлы к сообщениям
Вы не можете скачивать файлы