Важное объявление!
У Нас Все раздачи мультитрекерные, при нуле пиров в релизах, можете смело вставать на закачку!
 
Автор Сообщение

димитри37

Стаж:
3 года 10 месяцев
Сообщений:
1237

Репутация: 127

[+] [-]
Вне форума [Профиль] [ЛС]

Стальные двери / Iron Doors / 3D
Страна: Германия
Студия: Fullfeedback Productions, Water Bear Productions
Жанр: фэнтези, триллер
Год выпуска: 2010
Продолжительность: 01:20:28
Перевод: Любительский (одноголосый закадровый)
Перевод 2: Любительский (двухголосый закадровый)
Русские субтитры: нет
Оригинальная аудиодорожка: английский
Режиссер: Стивен Мануэль / Stephen Manuel
В ролях: Эксел Ведекинд, Рангано Нуони
Описание: Главный герой просыпается в замкнутом хранилище, не зная как он в нем очутился. Он должен попытаться выбраться из него, прежде чем он умрет от обезвоживания.
Доп. информация: Русский ДТС собран blacksnow1, голос предоставлен лорди74

Качество: BDRip
Формат: MKV
Формат 3D: Half OverUnder / Вертикальная анаморфная стереопара
Видео кодек: x264
Аудио кодек: DTS, AC3
Видео: AVC at 6 417 Kbps 1920 x 1080 (1.778) at 23.976 fps
Аудио #1: Русский 48 kHz 24bit, DTS, 6ch (L,R,C,SR,SL,Sw), ~1510.00 kbps avg ||Одноголосый, закадровый|| R1shpil
Аудио #2: Русский, 48 kHz, AC3 Dolby Digital, 2/0 (L,R) ch, ~192 kbps Двухголосый
Аудио #3: Английский 48 kHz 24bit, DTS, 6ch (L,R,C,SR,SL,Sw), ~1510.00 kbps avg
Аудио #4: Немецкий, AC3 Dolby Digital, 2ch (L,R), ~192.00 kbps avg

MediaInfo

General
Complete name Iron Doors.3D.2010.BluRay.1080p.Half-OU.2xRus.Eng.DTS.x264.mkv
Format : Matroska
File size : 5.63 GiB
Duration : 1h 20mn
Overall bit rate : 10.0 Mbps
Encoded date : UTC 2011-12-09 12:25:42
Writing application : mkvmerge v5.0.1 ('Es ist Sommer') built on Oct 9 2011 11:55:43
Writing library : libebml v1.2.2 + libmatroska v1.3.0
Video
ID : 1
Format : AVC
Format/Info : Advanced Video Codec
Format profile : High@L4.1
Format settings, CABAC : Yes
Format settings, ReFrames : 4 frames
Muxing mode : Container profile=Unknown@4.1
Codec ID : V_MPEG4/ISO/AVC
Duration : 1h 20mn
Bit rate : 6 417 Kbps
Width : 1 920 pixels
Height : 1 080 pixels
Display aspect ratio : 16:9
Frame rate : 23.976 fps
Color space : YUV
Chroma subsampling : 4:2:0
Bit depth : 8 bits
Scan type : Progressive
Bits/(Pixel*Frame) : 0.129
Stream size : 3.61 GiB (64%)
Title : Iron Doors.3D.2010.BluRay.1080p.Half-OU.AC3.x264 Rip by Ash61
Writing library : x264 core 113 r1884 7313bb5
Encoding settings : cabac=1 / ref=4 / deblock=1:-3:-3 / analyse=0x3:0x113 / me=umh / subme=9 / psy=1 / psy_rd=1.00:0.15 / mixed_ref=1 / me_range=16 / chroma_me=1 / trellis=2 / 8x8dct=1 / cqm=0 / deadzone=21,11 / fast_pskip=1 / chroma_qp_offset=-3 / threads=3 / sliced_threads=0 / nr=0 / decimate=1 / interlaced=0 / constrained_intra=0 / bframes=6 / b_pyramid=2 / b_adapt=2 / b_bias=0 / direct=3 / weightb=1 / open_gop=0 / weightp=2 / keyint=250 / keyint_min=23 / scenecut=40 / intra_refresh=0 / rc_lookahead=60 / rc=crf / mbtree=1 / crf=18.0 / qcomp=0.60 / qpmin=1 / qpmax=51 / qpstep=4 / ip_ratio=1.40 / aq=1:1.00
Language : English
Audio #1
ID : 2
Format : DTS
Format/Info : Digital Theater Systems
Codec ID : A_DTS
Duration : 1h 20mn
Bit rate mode : Constant
Bit rate : 1 510 Kbps
Channel(s) : 6 channels
Channel positions : Front: L C R, Side: L R, LFE
Sampling rate : 48.0 KHz
Bit depth : 24 bits
Stream size : 869 MiB (15%)
Title : Одноголосый любительский R1shpil
Language : Russian
Audio #2
ID : 3
Format : AC-3
Format/Info : Audio Coding 3
Mode extension : CM (complete main)
Codec ID : A_AC3
Duration : 1h 20mn
Bit rate mode : Constant
Bit rate : 192 Kbps
Channel(s) : 2 channels
Channel positions : Front: L R
Sampling rate : 48.0 KHz
Bit depth : 16 bits
Stream size : 111 MiB (2%)
Title : Любительский Двухголосый
Language : Russian
Audio #3
ID : 4
Format : DTS
Format/Info : Digital Theater Systems
Codec ID : A_DTS
Duration : 1h 20mn
Bit rate mode : Constant
Bit rate : 1 510 Kbps
Channel(s) : 6 channels
Channel positions : Front: L C R, Side: L R, LFE
Sampling rate : 48.0 KHz
Bit depth : 24 bits
Stream size : 869 MiB (15%)
Language : English
Audio #4
ID : 5
Format : AC-3
Format/Info : Audio Coding 3
Mode extension : CM (complete main)
Codec ID : A_AC3
Duration : 1h 20mn
Bit rate mode : Constant
Bit rate : 192 Kbps
Channel(s) : 6 channels
Channel positions : Front: L C R, Side: L R, LFE
Sampling rate : 48.0 KHz
Bit depth : 16 bits
Stream size : 111 MiB (2%)
Language : German
Menu
00:00:00.000 : :01
00:08:52.907 : :02
00:12:29.999 : :03
00:22:16.126 : :04
00:28:34.004 : :05
00:34:26.940 : :06
00:42:09.068 : :07
00:46:34.250 : :08
00:55:42.130 : :09
01:05:56.536 : :10
01:12:35.226 : :11
01:17:26.934 : :12
-
Показать сообщения:    

Текущее время: Сегодня 23:25

Часовой пояс: GMT



Вы не можете начинать темы
Вы не можете отвечать на сообщения
Вы не можете редактировать свои сообщения
Вы не можете удалять свои сообщения
Вы не можете голосовать в опросах
Вы не можете прикреплять файлы к сообщениям
Вы не можете скачивать файлы
Наши партнеры: интернет магазин Ивановского трикотажа textilla.ru