Важное объявление!
У Нас Все раздачи мультитрекерные, при нуле пиров в релизах, можете смело вставать на закачку!
 
Автор Сообщение

HUNTER

Стаж:
4 года 8 месяцев
Сообщений:
62091

Репутация: 101

[+] [-]
Вне форума [Профиль] [ЛС]

Стальной шлем / The Steel Helmet-
Год выпуска: 1951
Страна: США
Жанр: военный, драма
Продолжительность: 01:24:25
Перевод: Одноголосый закадровый — Андрей Лагута
Оригинальная аудиодорожка: Английская
Cубтитры: Русские (disluo), английские-Режиссер: Сэмюэл Фуллер / Samuel Fuller
В ролях: Джин Эванс, Роберт Хаттон, Стив Броди, Джеймс Эдвардс, Ричард Лу, Сид Мелтон, Ричард Монахэн, Уильям Чун, Харольд Фонг, Нейл Морроу-Описание:
Война в Корее. Рейдовый отряд американских пехотинцев попадает в плен. Чудом в живых остается лишь сержант Зак. Пуля пробила его стальной шлем, но не задела головы. Сержанту помогает корейский мальчик по прозвищу - Короткострел. Пробираясь к своим, они встречают военного медика, а после и другую группу рейдеров. У отряда задание: найти старый буддистский храм, и установить там пункт для координации артиллерии. Опасность подстерегает пехотинцев на каждом шагу.- | IMDb | Сэмпл-Качество: WEB-DL 720p (CtrlHD)
Контейнер: MKV
Видео: AVC, 960x720 (1.33:1), 23.976 fps, 4058 kbps
Аудио 1: Русский AC3 2.0, 48 kHz, 192 kbps
Аудио 2: Английский AC3 1.0, 48 kHz, 192 kbps
Аудио 3: Английкий AAC 2.0, 48 kHz, 116 kbps
Формат субтитров: softsub (SRT)

Скриншоты


MI

General
Unique ID : 212442669585669712561987455586840258297 (0x9FD2F84A30D2BC2086FB0D7E013AA6F9)
Complete name : The.Steel.Helmet.1951.720p.WEB-DL.H.264-CtrlHD.mkv
Format : Matroska
Format version : Version 2
File size : 2.69 GiB
Duration : 1h 24mn
Overall bit rate : 4 561 Kbps
Movie name : The Steel Helmet / Стальной шлем (1951) – RuTracker
Encoded date : UTC 2014-10-29 16:17:36
Writing application : mkvmerge v7.0.0 ('Where We Going') 64bit built on Jun 9 2014 15:16:27
Writing library : libebml v1.3.0 + libmatroska v1.4.1
Attachements : cover.jpg
Video
ID : 1
Format : AVC
Format/Info : Advanced Video Codec
Format profile : Main@L3.1
Format settings, CABAC : No
Format settings, ReFrames : 2 frames
Codec ID : V_MPEG4/ISO/AVC
Duration : 1h 24mn
Width : 960 pixels
Height : 720 pixels
Display aspect ratio : 4:3
Frame rate mode : Constant
Frame rate : 23.976 fps
Color space : YUV
Chroma subsampling : 4:2:0
Bit depth : 8 bits
Scan type : Progressive
Title : The.Steel.Helmet.1951.720p.WEB-DL.AAC2.0.H.264-CtrlHD
Language : English
Default : Yes
Forced : No
Color primaries : BT.709
Transfer characteristics : BT.709
Matrix coefficients : BT.709
Audio #1
ID : 2
Format : AC-3
Format/Info : Audio Coding 3
Mode extension : CM (complete main)
Format settings, Endianness : Big
Codec ID : A_AC3
Duration : 1h 24mn
Bit rate mode : Constant
Bit rate : 192 Kbps
Channel(s) : 2 channels
Channel positions : Front: L R
Sampling rate : 48.0 KHz
Bit depth : 16 bits
Compression mode : Lossy
Stream size : 116 MiB (4%)
Title : VO – А.Лагута
Language : Russian
Default : Yes
Forced : No
Audio #2
ID : 3
Format : AC-3
Format/Info : Audio Coding 3
Mode extension : CM (complete main)
Format settings, Endianness : Big
Codec ID : A_AC3
Duration : 1h 24mn
Bit rate mode : Constant
Bit rate : 192 Kbps
Channel(s) : 1 channel
Channel positions : Front: C
Sampling rate : 48.0 KHz
Bit depth : 16 bits
Compression mode : Lossy
Stream size : 116 MiB (4%)
Title : Original (DVD)
Language : English
Default : No
Forced : No
Audio #3
ID : 4
Format : AAC
Format/Info : Advanced Audio Codec
Format profile : LC
Codec ID : A_AAC
Duration : 1h 24mn
Channel(s) : 2 channels
Channel positions : Front: L R
Sampling rate : 48.0 KHz
Compression mode : Lossy
Title : Original (iTunes)
Language : English
Default : No
Forced : No
Text #1
ID : 5
Format : UTF-8
Codec ID : S_TEXT/UTF8
Codec ID/Info : UTF-8 Plain Text
Title : disluo
Language : Russian
Default : No
Forced : No
Text #2
ID : 6
Format : UTF-8
Codec ID : S_TEXT/UTF8
Codec ID/Info : UTF-8 Plain Text
Language : English
Default : No
Forced : No
Menu
00:00:00.000 : en:Opening Credits
00:01:39.000 : en:Sergeant Zack
00:10:37.000 : en:Driscoll's patrol
00:18:36.000 : en:Two snipers with burps
00:27:36.000 : en:Dog tags
00:34:05.000 : en:Observation post
00:39:34.000 : en:Short Round's song
00:48:34.000 : en:Prize package
00:56:39.000 : en:"I'm an American"
01:01:43.000 : en:Stupid prayer
01:10:31.000 : en:Under siege
01:21:53.000 : en:Swap helmets

_________________
Показать сообщения:    

Текущее время: Сегодня 20:02

Часовой пояс: GMT



Вы не можете начинать темы
Вы не можете отвечать на сообщения
Вы не можете редактировать свои сообщения
Вы не можете удалять свои сообщения
Вы не можете голосовать в опросах
Вы не можете прикреплять файлы к сообщениям
Вы не можете скачивать файлы
Наши партнеры: интернет магазин Ивановского трикотажа textilla.ru