Ивановский Торрент трекер
Яндекс.Погода
 

[Цитировать]
HUNTER

Стальной гигант / The Iron Giant [Signature Edition]- Год выпуска: 1999
Страна: США
Жанр: мультфильм, фантастика, боевик, комедия, приключения, семейный
Продолжительность: 01:29:58
Перевод: Профессиональный (полное дублирование)
Оригинальная звуковая дорожка: нет
Субтитры: русские (полные, форсированные - на места без перевода), английские (обычные, SDH, SDH-Colored), украинские (на места без перевода) [в папке раздачи] (внешние srt*) (спасибо Elheym)-Режиссер: Брэд Бёрд / Brad Bird
В ролях: Эли Мариентал, Вин Дизель, Дженнифер Энистон, Гарри Конник мл., Джеймс Гэммон, Клорис Личмен, Кристофер МакДональд, Джон Махони, М. Эммет Уолш, Джек Эйнджел
О фильме: Жители тихой американской провинции становятся свидетелями ослепительной вспышки и падения огромного летающего объекта. Спустя несколько дней мальчуган по имени Хогарт Хьюз находит в окрестностях гигантского робота, прилетевшего на Землю из далекой космической галактики.
Несмотря на свой грозный вид, инопланетный гость оказывается добрейшим созданием. Между ним и отважным мальчишкой завязывается настоящая дружба. Но узнавшие о существовании робота правительство и военные решили уничтожить пришельца. Хогарт - единственный, кто может спасти стального гиганта...-Релиз:
Автор: yaroslaigor
Качество: BDRip (источник: / BD-Remux / 1080р)
Формат: AVI
Видео: 720x304 (2.37:1), 23.976 fps, XviD build 65 ~1919 kbps avg, 0.36 bit/pixel
Аудио: 48 kHz, AC3 Dolby Digital, 3/2 (L,C,R,l,r) + LFE ch, ~384.00 kbps avg
Размер: 1488.17 Mb (1/3 DVD-R)
Скачать: Семпл-

Кадры из фильма


-

Mi

Формат : AVI
Формат/Информация : Audio Video Interleave
Размер файла : 1,45 Гбайт
Продолжительность : 1 ч. 29 м.
Общий поток : 2312 Кбит/сек
Название фильма : Стальной гигант / The Iron Giant (1999) BDRip
Режиссёр : yaroslaigor
Жанр : мультфильм, фантастика
Программа кодирования : VirtualDubMod 1.5.10.2 (build 2542/release)
Правообладатель : HQCLUB
Примечание : 18.09.2016
Видео
Идентификатор : 0
Формат : MPEG-4 Visual
Профиль формата : Advanced Simple@L5
Параметр BVOP формата : 1
Параметр QPel формата : Нет
Параметр GMC формата : Без точки перехода
Параметр матрицы формата : Выборочная
Идентификатор кодека : XVID
Идентификатор кодека/Подсказка : XviD
Продолжительность : 1 ч. 29 м.
Битрейт : 1919 Кбит/сек
Ширина : 720 пикселей
Высота : 304 пикселя
Соотношение сторон : 2,35:1
Частота кадров : 23,976 кадра/сек
Цветовое пространство : YUV
Субдискретизация насыщенности : 4:2:0
Битовая глубина : 8 бит
Тип развёртки : Прогрессивная
Метод сжатия : С потерями
Бит/(Пиксели*Кадры) : 0.366
Размер потока : 1,21 Гбайт (83%)
Библиотека кодирования : XviD 65
Аудио
Идентификатор : 1
Формат : AC-3
Формат/Информация : Audio Coding 3
Расширение режима : CM (complete main)
Параметр Endianness формата : Big
Идентификатор кодека : 2000
Продолжительность : 1 ч. 29 м.
Вид битрейта : Постоянный
Битрейт : 384 Кбит/сек
Каналы : 6 каналов
Расположение каналов : Front: L C R, Side: L R, LFE
Частота : 48,0 КГц
Битовая глубина : 16 бит
Метод сжатия : С потерями
Размер потока : 247 Мбайт (17%)
Выравнивание : Разделение по промежуткам
Продолжительность промежутка : 42 мс. (1,00 видеокадр)
Время предзагрузки промежутка : 500 мс.
-


Показать сообщения:    

Текущее время: 11-Дек 09:47

Часовой пояс: UTC ± 0


Вы не можете начинать темы
Вы не можете отвечать на сообщения
Вы не можете редактировать свои сообщения
Вы не можете удалять свои сообщения
Вы не можете голосовать в опросах
Вы не можете прикреплять файлы к сообщениям
Вы не можете скачивать файлы

!ВНИМАНИЕ!
Сайт не предоставляет электронные версии произведений, а занимается лишь коллекционированием и каталогизацией ссылок, присылаемых и публикуемых на форуме нашими читателями. Если вы являетесь правообладателем какого-либо представленного материала и не желаете, чтобы ссылка на него находилась в нашем каталоге, свяжитесь с нами, и мы незамедлительно удалим ее. Файлы для обмена на трекере предоставлены пользователями сайта, и администрация не несет ответственности за их содержание. Просьба не заливать файлы, защищенные авторскими правами, а также файлы нелегального содержания!