Важное объявление!
У Нас Все раздачи мультитрекерные, при нуле пиров в релизах, можете смело вставать на закачку!
Статистика раздачи
Размер:     |    Зарегистрирован:     |    Скачан:     |   
Нет
 
     
 
 
Автор Сообщение

palych74

Стаж:
5 лет
Сообщений:
80

Репутация: 21

[+] [-]
Вне форума [Профиль] [ЛС]

Средство от смерти-
Год выпуска: 2012
Производство: Россия, Компания PRO-TV
Жанр: Драма
Продолжительность: ~ 00:43:00
Режиссёр: Александр Муратов (II)-В ролях: Александр Домогаров, Екатерина Олькина, Владимир Ерёмин, Геннадий Матвеев, Юлия Рутберг, Иван Шмаков, Сергей Марухин, Александр Андриенко, Александр Сергеев (IV), Евгений Березовский, Олег Масленников-Войтов, Павел Меленчук, Марина Коняшкина, Артём Федотов, Алексей Лонгин-Описание: Корреспондент частной газеты Евгения Колесникова получает престижную журналистскую награду - "Серебряное перо" - за серию разоблачительных статей о махинациях с московской недвижимостью. Один из фигурантов дела о недвижимости - чиновник Виталий Мартов - выбрасывается из окна своей квартиры. В тот же день полицейские Назаров и Артемьев находят у погибшего профессионального киллера Борисенко блокнот со списком его будущих жертв. В списке - Евгения Колесникова. Неожиданно Женя сталкивается с множеством проблем: кто-то собирается ее убить; аноним угрожает ей по телефону; дочь Мартова Виктория предъявляет иски Жене и газете "Нонсенс". В личной жизни Жени тоже не все гладко. Человек, которого она любит, женат. Чиновник Алексей Погодин намного старше Жени…-Все раздачи сериала: http://rutracker.org/forum/tracker.php?f=9&nm=%...1%EC%E5%F0%F2%E8-Семпл: http://multi-up.com/764377-Релиз от:
Раздача от группы: -Качество: SATRip
Формат: AVI
Видео кодек: DivX
Аудио кодек: MP3
Видео: 720x400 (1.80:1), 25 fps, DivX Codec 5.x or 6.x ~1600 kbps avg, 0.220 bit/pixel
Аудио: 48 kHz, MPEG Layer 3, 2 ch, ~128.00 kbps avg

MI

Общее
Полное имя Sredstvo.ot.smerti.(1.serija).2012.XviD.SATRip.Files-x.avi
Формат : AVI
Формат/Информация : Audio Video Interleave
Размер файла : 382 Мбайт
Продолжительность : 30 м.
Общий поток : 1724 Кбит/сек
Программа кодирования : VirtualDubModRus 1.5.10.2 (build 2542/release)
Библиотека кодирования : VirtualDubMod build 2542/release
Видео
Идентификатор : 0
Формат : MPEG-4 Visual
Профиль формата : Simple@L1
Параметр BVOP формата : Нет
Параметр QPel формата : Нет
Параметр GMC формата : Без точки перехода
Параметр матрицы формата : Default (H.263)
Идентификатор кодека : DX50
Идентификатор кодека/Подсказка : DivX 5
Продолжительность : 30 м.
Битрейт : 1586 Кбит/сек
Ширина : 720 пикселей
Высота : 400 пикселей
Соотношение сторон : 16:9
Частота кадров : 25,000 кадров/сек
Цветовое пространство : YUV
Субдискретизация насыщенности : 4:2:0
Битовая глубина : 8 бит
Тип развёртки : Прогрессивная
Метод сжатия : С потерями
Бит/(Пиксели*Кадры) : 0.220
Размер потока : 351 Мбайт (92%)
Библиотека кодирования : Lavc52.58.0
Аудио
Идентификатор : 1
Формат : MPEG Audio
Версия формата : Version 1
Профиль формата : Layer 3
Режим : Joint stereo
Расширение режима : MS Stereo
Идентификатор кодека : 55
Идентификатор кодека/Подсказка : MP3
Продолжительность : 30 м.
Вид битрейта : Постоянный
Битрейт : 128 Кбит/сек
Каналы : 2 канала
Частота : 48,0 КГц
Метод сжатия : С потерями
Размер потока : 28,3 Мбайт (7%)
Выравнивание : Разделение по промежуткам
Продолжительность промежутка : 40 мс. (1,00 видеокадр)
Время предзагрузки промежутка : 500 мс.

Скриншоты

Показать сообщения:    

Текущее время: Сегодня 07:05

Часовой пояс: GMT



Вы не можете начинать темы
Вы не можете отвечать на сообщения
Вы не можете редактировать свои сообщения
Вы не можете удалять свои сообщения
Вы не можете голосовать в опросах
Вы не можете прикреплять файлы к сообщениям
Вы не можете скачивать файлы