Важное объявление!
У Нас Все раздачи мультитрекерные, при нуле пиров в релизах, можете смело вставать на закачку!
 
Автор Сообщение

HUNTER

Стаж:
4 года 6 месяцев
Сообщений:
61029

Репутация: 101

[+] [-]
Вне форума [Профиль] [ЛС]

Сражения Второй мировой войны. Курская битва--Год выпуска: 2012
Страна: Россия
Жанр: Документальный, познавательный, история
Продолжительность: 00:55:40
Перевод: Не требуется
Русские субтитры: нет--Описание: Познавательная передача о величайшем танковом сражении на Курской дуге, которое по своим масштабам, задействованным силам и средствам, напряжённости, результатам и военно-политическим последствиям является одним из ключевых сражений Второй мировой войны и Великой Отечественной войны. Самое крупное танковое сражение в истории; в нём участвовали около двух миллионов человек, шесть тысяч танков, четыре тысячи самолётов.--Качество видео: HDTVRip
формат: AVI
Видео: 720x400 (1.80:1), 25 fps, XviD build 73 ~1471 kbps avg, 0.20 bit/pixel
Аудио: 48 kHz, AC3 Dolby Digital, 2/0 (L,R) ch, ~384 kbps

MediaInfo

General
Complete name : F:\Рипы\Kurskaya.bitva.2012.HDTVRip.avi
Format : AVI
Format/Info : Audio Video Interleave
File size : 743 MiB
Duration : 55mn 40s
Overall bit rate : 1 866 Kbps
Writing application : VirtualDubModRus 1.5.10.2 (build 2542/release)
Writing library : VirtualDubMod build 2542/release
Video
ID : 0
Format : MPEG-4 Visual
Format profile : Advanced Simple@L5
Format settings, BVOP : 1
Format settings, QPel : No
Format settings, GMC : No warppoints
Format settings, Matrix : Custom
Codec ID : XVID
Codec ID/Hint : XviD
Duration : 55mn 40s
Bit rate : 1 472 Kbps
Width : 720 pixels
Height : 400 pixels
Display aspect ratio : 16:9
Frame rate : 25.000 fps
Color space : YUV
Chroma subsampling : 4:2:0
Bit depth : 8 bits
Scan type : Progressive
Compression mode : Lossy
Bits/(Pixel*Frame) : 0.204
Stream size : 586 MiB (79%)
Writing library : XviD 73
Audio
ID : 1
Format : AC-3
Format/Info : Audio Coding 3
Mode extension : CM (complete main)
Format settings, Endianness : Big
Codec ID : 2000
Duration : 55mn 40s
Bit rate mode : Constant
Bit rate : 384 Kbps
Channel(s) : 2 channels
Channel positions : Front: L R
Sampling rate : 48.0 KHz
Bit depth : 16 bits
Compression mode : Lossy
Stream size : 153 MiB (21%)
Alignment : Split accross interleaves
Interleave, duration : 40 ms (1.00 video frame)
Interleave, preload duration : 500 ms

Скриншоты

Большое спасибо Chulmanable за HDTV

_________________
Показать сообщения:    

Текущее время: Сегодня 00:24

Часовой пояс: GMT



Вы не можете начинать темы
Вы не можете отвечать на сообщения
Вы не можете редактировать свои сообщения
Вы не можете удалять свои сообщения
Вы не можете голосовать в опросах
Вы не можете прикреплять файлы к сообщениям
Вы не можете скачивать файлы
Наши партнеры: интернет магазин Ивановского трикотажа textilla.ru