Ивановский Торрент трекер
Яндекс.Погода
 

[Цитировать]
HUNTER

Спящий голос / La voz dormida / The Sleeping Voice
Страна: Испания
Жанр: драма, военный
Год выпуска: 2011
Продолжительность: 02:03:19
-
Перевод: Одноголосый закадровый Serg Tex
Cубтитры: русские (2 вида), английские
Оригинальная аудиодорожка: испанский
-
Режиссер: Бенито Самбрано / Benito Zambrano
В ролях: Инма Куэста, Мария Леон, Марк Клотет, Даниэль Ольгин, Ана Вахенер, Суси Санчес, Берта Охеа, Лола Касамайор, Анхела Кремонте, Ампаро Вега Леон
-
Описание: История двух сестер в смутный период сразу же после завершения гражданской войны в Испании. Младшая из них Пепита, простоватая девушка из окрестностей Кордовы, отправляется в Мадрид, чтобы быть рядом со своей сестрой Гортензией, которая находится в тюрьме и ждет ребенка.
За участие в движении Сопротивления и связь с его харизматичным лидером Фелипе Гортензия осуждена на смерть, но исполнение приговора отложено до родов. Пепита устраивается горничной в богатом доме и в тоже время связывается с прячущимися в горах повстанцами. Там она влюбляется в одного из их лидеров красавца Паулино. Пепита стремится любой ценой оттянуть казнь, тогда как Гортензия со своими сокамерницами пытаются не допустить того, чтобы ее родившийся ребенок был отдан в приют.

Тип релиза: BDRemux 1080p
Контейнер: MKV
Видео: MPEG-4 AVC | NTSC 16:9 | 1920x1080 (2,35:1) | 23999 kbps | 24,000 fps | 0.482 bit/pixel | High@L4.1
Аудио 1: Russian | Dolby Digital Audio | 5.1 Ch | 48 kHz | 384 kbps | 16 bit | VO | Serg Tex
Аудио 2: Spanish | DTS-HD Master Audio | 5.1 Ch | 48 kHz | 1955 kbps | 16-bit (DTS Core: 5.1 Ch | 48 kHz | 1509 kbps | 16-bit) | Original
Формат субтитров: softsub (SRT)
Навигация по главам: есть

MediaInfo

Общее
Уникальный идентификатор                 : 249823516415502683899432251989272820998 (0xBBF24254E166DFF0BB928F47791BFD06)
Полное имя                               : F:\La voz dormida.2011.BDRemux.1080p.mkv
Формат                                   : Matroska
Версия формата                           : Version 4 / Version 2
Размер файла                             : 22,7 Гбайт
Продолжительность                        : 2 ч. 3 м.
Режим общего битрейта                    : Переменный
Общий поток                              : 26,3 Мбит/сек
Название фильма                          : Release for RuTracker © flaSI-I
Дата кодирования                         : UTC 2016-09-06 20:13:43
Программа кодирования                    : mkvmerge v9.4.0 ('Knurl') 64bit
Библиотека кодирования                   : libebml v1.3.4 + libmatroska v1.4.5
Видео
Идентификатор                            : 1
Формат                                   : AVC
Формат/Информация                        : Advanced Video Codec
Профиль формата                          : High@L4.1
Параметр CABAC формата                   : Да
Параметр ReFrames формата                : 4 кадра
Идентификатор кодека                     : V_MPEG4/ISO/AVC
Продолжительность                        : 2 ч. 3 м.
Вид битрейта                             : Переменный
Битрейт                                  : 24,0 Мбит/сек
Максимальный битрейт                     : 35,0 Мбит/сек
Ширина                                   : 1920 пикселей
Высота                                   : 1080 пикселей
Соотношение сторон                       : 16:9
Режим частоты кадров                     : Постоянный
Частота кадров                           : 24,000 кадра/сек
Стандарт вещания                         : NTSC
Цветовое пространство                    : YUV
Субдискретизация насыщенности            : 4:2:0
Битовая глубина                          : 8 бит
Тип развёртки                            : Прогрессивная
Бит/(Пиксели*Кадры)                      : 0.482
Размер потока                            : 20,7 Гбайт (91%)
Язык                                     : Spanish
Default                                  : Да
Forced                                   : Нет
Цветовой диапазон                        : Limited
Основные цвета                           : BT.709
Характеристики трансфера                 : BT.709
Коэффициенты матрицы                     : BT.709
Аудио #1
Идентификатор                            : 2
Формат                                   : AC-3
Формат/Информация                        : Audio Coding 3
Расширение режима                        : CM (complete main)
Параметр Endianness формата              : Big
Идентификатор кодека                     : A_AC3
Продолжительность                        : 2 ч. 3 м.
Вид битрейта                             : Постоянный
Битрейт                                  : 384 Кбит/сек
Каналы                                   : 6 каналов
Расположение каналов                     : Front: L C R, Side: L R, LFE
Частота                                  : 48,0 КГц
Частота кадров                           : 31,250 кадров/сек (1536 spf)
Метод сжатия                             : С потерями
Размер потока                            : 339 Мбайт (1%)
Заголовок                                : VO | Serg Tex
Язык                                     : Russian
Default                                  : Да
Forced                                   : Нет
Аудио #2
Идентификатор                            : 3
Формат                                   : DTS
Формат/Информация                        : Digital Theater Systems
Профиль формата                          : MA / Core
Режим                                    : 16
Параметр Endianness формата              : Big
Идентификатор кодека                     : A_DTS
Продолжительность                        : 2 ч. 3 м.
Вид битрейта                             : Переменный / Постоянный
Битрейт                                  : 1920 Кбит/сек / 1509 Кбит/сек
Каналы                                   : 6 каналов
Расположение каналов                     : Front: L C R, Side: L R, LFE
Частота                                  : 48,0 КГц
Частота кадров                           : 93,750 кадра/сек (512 spf)
Битовая глубина                          : 16 бит
Метод сжатия                             : Без потерь / Lossy
Размер потока                            : 1,68 Гбайт (7%)
Заголовок                                : Original
Язык                                     : Spanish
Default                                  : Нет
Forced                                   : Нет
Текст #1
Идентификатор                            : 4
Формат                                   : UTF-8
Идентификатор кодека                     : S_TEXT/UTF8
Идентификатор кодека/Информация          : UTF-8 Plain Text
Продолжительность                        : 1 ч. 58 м.
Битрейт                                  : 98 бит/сек
Count of elements                        : 1738
Размер потока                            : 86,0 Кбайт (0%)
Заголовок                                : maggot_corpse
Язык                                     : Russian
Default                                  : Нет
Forced                                   : Нет
Текст #2
Идентификатор                            : 5
Формат                                   : UTF-8
Идентификатор кодека                     : S_TEXT/UTF8
Идентификатор кодека/Информация          : UTF-8 Plain Text
Продолжительность                        : 1 ч. 58 м.
Битрейт                                  : 106 бит/сек
Count of elements                        : 1690
Размер потока                            : 92,4 Кбайт (0%)
Заголовок                                : nokino
Язык                                     : Russian
Default                                  : Нет
Forced                                   : Нет
Текст #3
Идентификатор                            : 6
Формат                                   : UTF-8
Идентификатор кодека                     : S_TEXT/UTF8
Идентификатор кодека/Информация          : UTF-8 Plain Text
Продолжительность                        : 1 ч. 58 м.
Битрейт                                  : 58 бит/сек
Count of elements                        : 1739
Размер потока                            : 50,9 Кбайт (0%)
Заголовок                                : ENGLiSH | FULL
Язык                                     : English
Default                                  : Нет
Forced                                   : Нет
Меню
00:00:00.000                             : en:00:00:00.000
00:16:50.000                             : en:00:16:50.000
00:32:55.375                             : en:00:32:55.375
00:47:48.375                             : en:00:47:48.375
01:02:50.542                             : en:01:02:50.542
01:18:41.708                             : en:01:18:41.708
01:27:00.958                             : en:01:27:00.958
01:45:02.792                             : en:01:45:02.792

Скриншоты

-


Показать сообщения:    

Текущее время: 22-Окт 05:40

Часовой пояс: UTC - 1


Вы не можете начинать темы
Вы не можете отвечать на сообщения
Вы не можете редактировать свои сообщения
Вы не можете удалять свои сообщения
Вы не можете голосовать в опросах
Вы не можете прикреплять файлы к сообщениям
Вы не можете скачивать файлы

!ВНИМАНИЕ!
Сайт не предоставляет электронные версии произведений, а занимается лишь коллекционированием и каталогизацией ссылок, присылаемых и публикуемых на форуме нашими читателями. Если вы являетесь правообладателем какого-либо представленного материала и не желаете, чтобы ссылка на него находилась в нашем каталоге, свяжитесь с нами, и мы незамедлительно удалим ее. Файлы для обмена на трекере предоставлены пользователями сайта, и администрация не несет ответственности за их содержание. Просьба не заливать файлы, защищенные авторскими правами, а также файлы нелегального содержания!