Ивановский Торрент трекер
Яндекс.Погода
 

[Цитировать]
HUNTER

Спутник вместо бомбы
Дата/Год выпуска: 1997
Страна: Россия, Студия «РОСКОСМОС», ГТРК «ТЕЛЕКАНАЛ «РОССИЯ»
Жанр: Документальный, космос, история
Продолжительность: 00:44:09
Перевод: Не требуется
Режиссер: Майя Данилевская
Телеканал: История
Описание: Документальный фильм о неизвестных страницах создания и запуска первого спутника Земли. О своей некогда сверхсекретной работе поведают учёные, конструкторы, испытатели - те, кто создавали советский спутник. Его могло вообще не быть - первую искусственную Луну должны были отправить в космос американцы. Кто же были эти люди, сумевшие опередить США?
В тот день, 4 октября 1957 года, Америку охватила паника: якобы русские запустили в космос ядерную бомбу. Президент Соединенных Штатов прервал свой загородный отдых и срочно вылетел в Вашингтон. Космический объект, так напугавший Америку, оказался сделанным в СССР первым в мире искусственным спутником Земли. Маленький мирный спутник, весом чуть более 80 килограммов, с обычным радиопередатчиком открыл космическую эру человечества.
Вокруг известия о спутнике начался настоящий бум. В барах Западной Европы появились коктейли «Спутник», в дансингах - разновидность рок-н-ролла, тоже «Спутник».
Первый спутник просуществовал на орбите 92 дня. Когда в начале января 1958 года он сгорал в верхних слоях атмосферы, и кто-то загадывал желание, принимая его за падающую звезду, на орбите уже летал второй советский аппарат. И лишь через месяц - в феврале 1958 года Соединенные Штаты запустили свой первый спутник.
В середине 1958 года Нобелевский комитет решил наградить премией создателей первого в мире искусственного спутника Земли. На запрос из Стокгольма; кто же автор и главный конструктор космического аппарата, глава СССР Никита Хрущёв ответил, что творец новой техники - весь советский народ. Мир в те годы так и не узнал имен своих засекреченных героев...
Доп. информация: Авторство релиза - alf62

качество: SATRip
формат: AVI
Видео: 704x528 (1.33:1), 25 fps, XviD build 73 ~1908 kbps avg, 0.21 bit/pixel
Аудио: 48 kHz, AC3 Dolby Digital, 2/0 (L,R) ch, ~192.00 kbps avg

MediaInfo

Спутник.вместо.бомбы.2007.XviD.SATRip.alf62.aviФормат : AVIФормат/Информация : Audio Video InterleaveРазмер файла : 666 МбайтПродолжительность : 44 м.Общий поток : 2111 Кбит/секПрограмма кодирования : VirtualDubMod 1.5.10.3 | www.virtualdub-fr.org || (build 2550/release)Библиотека кодирования : VirtualDubMod build 2550/release
ВидеоИдентификатор : 0Формат : MPEG-4 VisualПрофиль формата : Advanced Simple@L5Параметр BVOP формата : 2Параметр QPel формата : НетПараметр GMC формата : Без точки переходаПараметр матрицы формата : Default (MPEG)Идентификатор кодека : XVIDИдентификатор кодека/Подсказка : XviDПродолжительность : 44 м.Битрейт : 1909 Кбит/секШирина : 704 пикселяВысота : 528 пикселейСоотношение сторон : 4:3Частота кадров : 25,000 кадров/секЦветовое пространство : YUVСубдискретизация насыщенности : 4:2:0Битовая глубина : 8 битТип развёртки : ПрогрессивнаяМетод сжатия : С потерямиБит/(Пиксели*Кадры) : 0.205Размер потока : 603 Мбайт (90%)Библиотека кодирования : XviD 73
АудиоИдентификатор : 1Формат : AC-3Формат/Информация : Audio Coding 3Расширение режима : CM (complete main)Параметр Endianness формата : BigИдентификатор кодека : 2000Продолжительность : 44 м.Вид битрейта : ПостоянныйБитрейт : 192 Кбит/секКаналы : 2 каналаРасположение каналов : Front: L RЧастота : 48,0 КГцБитовая глубина : 16 битМетод сжатия : С потерямиРазмер потока : 60,6 Мбайт (9%)Выравнивание : Разделение по промежуткамПродолжительность промежутка : 40 мс. (1,00 видеокадр)Время предзагрузки промежутка : 500 мс.
Показать сообщения:    

Текущее время: 18-Окт 04:48

Часовой пояс: UTC - 1


Вы не можете начинать темы
Вы не можете отвечать на сообщения
Вы не можете редактировать свои сообщения
Вы не можете удалять свои сообщения
Вы не можете голосовать в опросах
Вы не можете прикреплять файлы к сообщениям
Вы не можете скачивать файлы

!ВНИМАНИЕ!
Сайт не предоставляет электронные версии произведений, а занимается лишь коллекционированием и каталогизацией ссылок, присылаемых и публикуемых на форуме нашими читателями. Если вы являетесь правообладателем какого-либо представленного материала и не желаете, чтобы ссылка на него находилась в нашем каталоге, свяжитесь с нами, и мы незамедлительно удалим ее. Файлы для обмена на трекере предоставлены пользователями сайта, и администрация не несет ответственности за их содержание. Просьба не заливать файлы, защищенные авторскими правами, а также файлы нелегального содержания!