Ивановский Торрент трекер
Яндекс.Погода
 

[Цитировать]
HUNTER

Специальный репортаж. Космоснаш
Дата/Год выпуска: 2015
Страна: Россия
Жанр: документальный
Продолжительность: 00:25:56
Перевод: Не требуется
Режиссер: Валерий Конин
Описание: Изучение и освоение космического пространства всегда было одним из приоритетных направлений для советской и российской науки. Мы первыми вывели на орбиту искусственный спутник Земли, первыми запустили в космос человека. И когда настал черёд полётов к другим планетам, Россия также не собирается отставать. В специальном репортаже: российская лунная программа, эксперимент "Луна-2015", в котором участвовали только женщины. Как испытываются ракетные двигатели? Как можно имитировать лунную поверхность на Земле, и зачем группе энтузиастов из нашей страны понадобилось запускать к Луне микроспутник?
Доп. информация: Автор: Никита Васильев
Сэмпл: http://sendfile.su/1183612
качество: WEBRip
формат: MP4
Видео: AVC, 1200 Кбит/сек, 704 x 396 (1.778), 25.000 fps
Аудио: AAC, 96,0 Кбит/сек, 2 канала, 48,0 КГц

MediaInfo

ОбщееПолное имя : T:\Мои раздачи\1\Космоснаш (2015)\Специальный репортаж. Космоснаш (2015).mp4Формат : MPEG-4Профиль формата : Base Media / Version 2Идентификатор кодека : mp42Размер файла : 241 МбайтПродолжительность : 25 м.Режим общего битрейта : ПеременныйОбщий поток : 1297 Кбит/секДата кодирования : UTC 2015-12-14 14:25:28Дата пометки : UTC 2015-12-14 14:25:28
ВидеоИдентификатор : 1Формат : AVCФормат/Информация : Advanced Video CodecПрофиль формата : High@L3Параметр CABAC формата : ДаПараметр ReFrames формата : 2 кадраИдентификатор кодека : avc1Идентификатор кодека/Информация : Advanced Video CodingПродолжительность : 25 м.Вид битрейта : ПостоянныйБитрейт : 1200 Кбит/секШирина : 704 пикселяВысота : 396 пикселейСоотношение сторон : 16:9Режим частоты кадров : ПостоянныйЧастота кадров : 25,000 кадров/секЦветовое пространство : YUVСубдискретизация насыщенности : 4:2:0Битовая глубина : 8 битТип развёртки : ПрогрессивнаяБит/(Пиксели*Кадры) : 0.172Размер потока : 222 Мбайт (92%)Язык : EnglishДата кодирования : UTC 2015-12-14 14:25:28Дата пометки : UTC 2015-12-14 14:25:28Цветовой диапазон : Limited
АудиоИдентификатор : 2Формат : AACФормат/Информация : Advanced Audio CodecПрофиль формата : HE-AAC / LCИдентификатор кодека : 40Продолжительность : 25 м.Вид битрейта : ПеременныйБитрейт : 96,0 Кбит/секМаксимальный битрейт : 188 Кбит/секКаналы : 2 каналаРасположение каналов : Front: L RЧастота : 48,0 КГц / 24,0 КГцМетод сжатия : С потерямиРазмер потока : 17,6 Мбайт (7%)Язык : RussianДата кодирования : UTC 2015-12-14 14:25:28Дата пометки : UTC 2015-12-14 14:25:28

Скриншоты

Показать сообщения:    

Текущее время: 24-Сен 09:32

Часовой пояс: UTC - 1


Вы не можете начинать темы
Вы не можете отвечать на сообщения
Вы не можете редактировать свои сообщения
Вы не можете удалять свои сообщения
Вы не можете голосовать в опросах
Вы не можете прикреплять файлы к сообщениям
Вы не можете скачивать файлы

!ВНИМАНИЕ!
Сайт не предоставляет электронные версии произведений, а занимается лишь коллекционированием и каталогизацией ссылок, присылаемых и публикуемых на форуме нашими читателями. Если вы являетесь правообладателем какого-либо представленного материала и не желаете, чтобы ссылка на него находилась в нашем каталоге, свяжитесь с нами, и мы незамедлительно удалим ее. Файлы для обмена на трекере предоставлены пользователями сайта, и администрация не несет ответственности за их содержание. Просьба не заливать файлы, защищенные авторскими правами, а также файлы нелегального содержания!