Ивановский Торрент трекер
Яндекс.Погода
 

[Цитировать]
HUNTER

Специальный репортаж. Космическая гонка 2.0
Дата/Год выпуска: 2014
Страна: Россия
Жанр: документальный
Продолжительность: 00:26:04
Перевод: Не требуется
Режиссер: Владимир Батраков
Описание: Специальный репортаж, приуроченный к празднованию Дня космонавтики и посвящённый перспективам изучения космоса в нашей стране и за рубежом. Проект Федеральной космической программы России на 2016 - 2025 годы предусматривает подготовку к полётам на другие планеты Солнечной системы. На это же нацелены и космические программы других стран. Авторы специального репортажа расскажут о "космической гонке" на новом историческом витке. Если раньше в ней участвовали лишь две "сверхдержавы" - СССР и США, то теперь появилось ещё как минимум два активных "игрока" - Евросоюз и Китай. Стараются не отставать от них и другие государства, названия которых ещё недавно никак не ассоциировались с исследованиями космоса - Индия, Иран, Япония. В специальном репортаже будет рассказано о перспективных российских и иностранных космических разработках, а также о проектах советского времени, незаслуженно забытых сегодня.
Доп. информация: Автор - Пётр Любимов
Сэмпл: http://sendfile.su/1129963
качество: WEBRip
формат: MP4
Видео: AVC, 1300 Кбит/сек, 704 x 400 (1.778), 25.000 fps
Аудио: AAC, 96,0 Кбит/сек, 2 канала, 48,0 КГц

MediaInfo

ОбщееПолное имя : T:\Мои раздачи\Космическая гонка 2.0 (2014)\Космическая гонка 2.0 (2014).mp4Формат : MPEG-4Профиль формата : Base Media / Version 2Идентификатор кодека : mp42Размер файла : 260 МбайтПродолжительность : 26 м.Режим общего битрейта : ПеременныйОбщий поток : 1393 Кбит/секПрограмма кодирования : TMPGEnc Video Mastering Works 5 Version. 5.0.6.38
ВидеоИдентификатор : 2Формат : AVCФормат/Информация : Advanced Video CodecПрофиль формата : High@L3Параметр CABAC формата : ДаПараметр ReFrames формата : 3 кадраИдентификатор кодека : avc1Идентификатор кодека/Информация : Advanced Video CodingПродолжительность : 26 м.Вид битрейта : ПеременныйБитрейт : 1300 Кбит/секМаксимальный битрейт : 2000 Кбит/секШирина : 704 пикселяВысота : 400 пикселейСоотношение сторон : 16:9Режим частоты кадров : ПостоянныйЧастота кадров : 25,000 кадров/секСтандарт вещания : NTSCЦветовое пространство : YUVСубдискретизация насыщенности : 4:2:0Битовая глубина : 8 битТип развёртки : ПрогрессивнаяБит/(Пиксели*Кадры) : 0.185Размер потока : 241 Мбайт (93%)Библиотека кодирования : x264 core 114Настройки программы : cabac=1 / ref=3 / deblock=1:0:0 / analyse=0x3:0x113 / me=hex / subme=7 / psy=1 / psy_rd=1.00:0.00 / mixed_ref=1 / me_range=16 / chroma_me=1 / trellis=1 / 8x8dct=1 / cqm=2 / deadzone=21,11 / fast_pskip=1 / chroma_qp_offset=-4 / threads=12 / sliced_threads=0 / slices=1 / nr=0 / decimate=1 / interlaced=0 / constrained_intra=0 / bframes=3 / b_pyramid=0 / b_adapt=1 / b_bias=0 / direct=1 / weightb=1 / open_gop=0 / weightp=2 / keyint=250 / keyint_min=25 / scenecut=40 / intra_refresh=0 / rc_lookahead=40 / rc=2pass / mbtree=1 / bitrate=1300 / ratetol=1.0 / qcomp=0.60 / qpmin=5 / qpmax=69 / qpstep=4 / cplxblur=20.0 / qblur=0.5 / vbv_maxrate=2000 / vbv_bufsize=1998 / nal_hrd=vbr / ip_ratio=1.40 / aq=1:1.00Цветовой диапазон : LimitedОсновные цвета : BT.601 PALХарактеристики трансфера : BT.470 System B, BT.470 System GКоэффициенты матрицы : BT.601
АудиоИдентификатор : 1Формат : AACФормат/Информация : Advanced Audio CodecПрофиль формата : LCИдентификатор кодека : 40Продолжительность : 26 м.Вид битрейта : ПеременныйБитрейт : 96,0 Кбит/секМаксимальный битрейт : 576 Кбит/секКаналы : 2 каналаРасположение каналов : Front: L RЧастота : 48,0 КГцМетод сжатия : С потерямиРазмер потока : 17,9 Мбайт (7%)

Скриншоты



Показать сообщения:    

Текущее время: 12-Дек 18:18

Часовой пояс: UTC ± 0


Вы не можете начинать темы
Вы не можете отвечать на сообщения
Вы не можете редактировать свои сообщения
Вы не можете удалять свои сообщения
Вы не можете голосовать в опросах
Вы не можете прикреплять файлы к сообщениям
Вы не можете скачивать файлы

!ВНИМАНИЕ!
Сайт не предоставляет электронные версии произведений, а занимается лишь коллекционированием и каталогизацией ссылок, присылаемых и публикуемых на форуме нашими читателями. Если вы являетесь правообладателем какого-либо представленного материала и не желаете, чтобы ссылка на него находилась в нашем каталоге, свяжитесь с нами, и мы незамедлительно удалим ее. Файлы для обмена на трекере предоставлены пользователями сайта, и администрация не несет ответственности за их содержание. Просьба не заливать файлы, защищенные авторскими правами, а также файлы нелегального содержания!