Важное объявление!
У Нас Все раздачи мультитрекерные, при нуле пиров в релизах, можете смело вставать на закачку!
 
Автор Сообщение

HUNTER

Стаж:
4 года 7 месяцев
Сообщений:
61476

Репутация: 101

[+] [-]
Вне форума [Профиль] [ЛС]

Разработка Windows-приложений для Microsoft .NET на Visual C# / Developing Microsoft .Net applications for Windows-
Год выпуска: 2011.
Производитель: Специалист.
Сайт производителя: specialist.ru.
Автор: Шуйков Сергей Юрьевич.
Продолжительность: 28 видео общей продолжительностью 19ч28м13с.
Тип раздаваемого материала: Видеоурок.
Язык: Русский.
Описание: Данный курс позволяет слушателям получить углублённое представление о возможностях среды разработки .NET Framework для создания элементов управления, клиентских и серверных приложений, распределённых приложений. Основное внимание в курсе уделяется изучению системы классов .NET Framework, используя и расширяя которую программисты могут создавать приложения Windows с самым широким набором возможностей.
Цель курса: Данный курс позволяет слушателям получить углублённое представление о возможностях среды разработки .NET Framework для создания элементов управления, клиентских и серверных приложений, распределённых приложений.
Основное внимание в курсе уделяется изучению системы классов .NET Framework, используя и расширяя которую программисты могут создавать приложения Windows с самым широким набором возможностей.
Файлы примеров: нет
Формат видео: WMV.
Видео 1: WMV3, 1280x1024 px, ~100kbps, 29.97fps.
Аудио 1: WMA, 48 kbps, 44,1 kHz, mono.

Содержание

Модуль 01 - Введение в Оконные формы.
*Создание формы.
*Добавление на форму элементов управления.
*Организация элементов управления на форме.
*Создание унаследованной формы.
*Пролог. Создание MDI приложений.
Модуль 02 - Работа с элементами управления
*Создание обработчика событий для элемента управления.
*Использование элементов управления формы.
*Использование диалоговых окон в оконных приложениях.
*Динамическое создание элементов управления.
*Дебаг кода предыдущего урока.
*Создание Основного меню окна.
*Проверка пользовательского ввода.
Модуль 03 - Создание элементов управления.
*Создание элементов управления и расширение функциональности.
*Композитные элементы управления форм.
*Лицензирование элементов управления форм.
Модуль 04 - Организация работы с данными в оконных приложениях.
*Добавление и настройка ADO .NET объектов на винформы.
*Доступ к пользовательскому набору данных.
*Линковка данных с элементами управления.
Модуль 05 - Взаимодействие с управляемыми объектами.
*Использование .NET и COM компонентов.
*Вызов Win32 API из оконных приложений.
Модуль 06 - Организация печати из оконных приложений.
Модуль 07 - Многопоточность и асинхронное программирование.
*Модель асинхронного программирования в .NET.
*Паттерны асинхронного программирования.
Модуль 08 - Специальные возможности и локализация приложений.
*Часть 1 - Добавление интерфейса для людей-инвалидов.
*Часть 2 - Локализация приложения.
Модуль 09 - Развёртывание оконных приложений.
Модуль 10 - Безопасность в оконных приложениях.

Особенности

0. Данный курс основывается на элементарном знании слушателя языка С# и предполагается что студент уже умеет в базовые конструкции - ветвления, циклы, массивы, типы e.t.c.
1. 4-5 часовые видео, разделены на модули продолжительностью от полу- до полутора часов каждый.
2. Для просмотра видео НЕ требуется специфический кодек.
3. В модуле 7.1 первые 6 минут нет звука. Почему - не знаю. Сорц был таким.

Подробные тех. данные

Media Info

Модуль 01. Часть 1 - Создание формы.wmv

GeneralComplete name : D:\C#_App\Модуль 01. Часть 1 - Создание формы.wmvFormat : Windows MediaFile size : 62.2 MiBDuration : 56mn 17sOverall bit rate mode : VariableOverall bit rate : 154 KbpsMaximum Overall bit rate : 12.2 MbpsEncoded date : UTC 2016-03-03 08:25:24.190Writing application : 5.1 Build 880 / GoToMeetingBitRateFrom the writer : 174864Audio samples : 139440Video samples : 67505recording time : Чт, 03 мар 2016 20:06:01 RTZ 9 (зима)
VideoID : 2Format : VC-1Format profile : MP@HLCodec ID : WMV3Codec ID/Info : Windows Media Video 9Codec ID/Hint : WMV3Description of the codec : Windows Media Video 9Duration : 56mn 17sBit rate mode : VariableBit rate : 635 KbpsWidth : 1 280 pixelsHeight : 1 024 pixelsDisplay aspect ratio : 5:4Frame rate : 29.970 fpsColor space : YUVChroma subsampling : 4:2:0Bit depth : 8 bitsScan type : ProgressiveCompression mode : LossyBits/(Pixel*Frame) : 0.016Stream size : 256 MiB
AudioID : 1Format : WMAFormat version : Version 2Codec ID : 161Codec ID/Info : Windows Media AudioDescription of the codec : Windows Media Audio 9.2 - 48 kbps, 44 kHz, mono 1-pass CBRDuration : 56mn 17sBit rate mode : ConstantBit rate : 48.0 KbpsChannel(s) : 1 channelSampling rate : 44.1 KHzBit depth : 16 bitsStream size : 19.3 MiB (31%)

Модуль 01. Часть 2 - Добавление на форму элементов управления.wmv

GeneralComplete name : D:\C#_App\Модуль 01. Часть 2 - Добавление на форму элементов управления.wmvFormat : Windows MediaFile size : 99.0 MiBDuration : 1h 11mnOverall bit rate mode : VariableOverall bit rate : 194 KbpsMaximum Overall bit rate : 12.2 MbpsEncoded date : UTC 2016-03-03 08:25:24.190Writing application : 5.1 Build 880 / GoToMeetingBitRateFrom the writer : 174864Audio samples : 139440Video samples : 67505recording time : Чт, 03 мар 2016 20:06:01 RTZ 9 (зима)
VideoID : 2Format : VC-1Format profile : MP@HLCodec ID : WMV3Codec ID/Info : Windows Media Video 9Codec ID/Hint : WMV3Description of the codec : Windows Media Video 9Duration : 1h 11mnBit rate mode : VariableBit rate : 635 KbpsWidth : 1 280 pixelsHeight : 1 024 pixelsDisplay aspect ratio : 5:4Frame rate : 29.970 fpsColor space : YUVChroma subsampling : 4:2:0Bit depth : 8 bitsScan type : ProgressiveCompression mode : LossyBits/(Pixel*Frame) : 0.016Stream size : 324 MiB
AudioID : 1Format : WMAFormat version : Version 2Codec ID : 161Codec ID/Info : Windows Media AudioDescription of the codec : Windows Media Audio 9.2 - 48 kbps, 44 kHz, mono 1-pass CBRDuration : 1h 11mnBit rate mode : ConstantBit rate : 48.0 KbpsChannel(s) : 1 channelSampling rate : 44.1 KHzBit depth : 16 bitsStream size : 24.5 MiB (25%)

avidump

Модуль 01. Часть 1 - Создание формы.wmv
File: D:\C#_App\Модуль 01. Часть 1 - Создание формы.wmv
Duration: 00:56:18 (3377.97)
Track #1: video
lang: Unknown (1)
codc: WMV3 -> WMV9/3 (19)
reso: 1280x1024 -> Unknown (aka not common)
fram: 0 fps
rate: 101 kbps (101.279)
dura: 00:00:00 (0)
size: 0.00 B (0)
Track #2: audio
lang: Unknown (1)
codc: 161 -> WMA (DivX Audio) (3)
chan: 1 -> Mono
samp: 44100 Hz
rate: 48 kbps (48.02)
dura: 00:00:00 (0.00)
size: 0.00 B (0)
Sizes: (check sanity)
disk: 62.16 MB (65182458)
trac: 0.00 B (0) [based on track size]
bitr: 60.12 MB (63042574) [based on bitrate]
tdif: 62.16 MB (65182458) 100.00%
bdif: 2.04 MB (2139883) 3.28%

Модуль 01. Часть 2 - Добавление на форму элементов управления.wmv

File: D:\C#_App\Модуль 01. Часть 2 - Добавление на форму элементов управления.wmv
Duration: 01:11:22 (4281.7)
Track #1: video
lang: Unknown (1)
codc: WMV3 -> WMV9/3 (19)
reso: 1280x1024 -> Unknown (aka not common)
fram: 0 fps
rate: 140 kbps (140.008)
dura: 00:00:00 (0)
size: 0.00 B (0)
Track #2: audio
lang: Unknown (1)
codc: 161 -> WMA (DivX Audio) (3)
chan: 1 -> Mono
samp: 44100 Hz
rate: 48 kbps (48.02)
dura: 00:00:00 (0.00)
size: 0.00 B (0)
Sizes: (check sanity)
disk: 98.96 MB (103771882)
trac: 0.00 B (0) [based on track size]
bitr: 95.97 MB (100637034) [based on bitrate]
tdif: 98.96 MB (103771882) 100.00%
bdif: 2.99 MB (3134847) 3.02%

Скриншоты



_________________
Показать сообщения:    

Текущее время: Сегодня 16:41

Часовой пояс: GMT



Вы не можете начинать темы
Вы не можете отвечать на сообщения
Вы не можете редактировать свои сообщения
Вы не можете удалять свои сообщения
Вы не можете голосовать в опросах
Вы не можете прикреплять файлы к сообщениям
Вы не можете скачивать файлы
Наши партнеры: интернет магазин Ивановского трикотажа textilla.ru