Важное объявление!
У Нас Все раздачи мультитрекерные, при нуле пиров в релизах, можете смело вставать на закачку!
 
Автор Сообщение

HUNTER

Стаж:
4 года 10 месяцев
Сообщений:
65531

Репутация: 101

[+] [-]
Вне форума [Профиль] [ЛС]

Программирование на Visual С++-
Год выпуска: 2011.
Производитель: Специалист.
Сайт производителя: specialist.ru.
Автор: Тетерин Вячеслав Гертрудович.
Продолжительность: 25 видео общей продолжительностью 33ч52м06с.
Тип раздаваемого материала: Видеоурок.
Язык: Русский.
Описание: В курсе «Программирование на Visual С ++» рассматриваются все этапы подготовки и тестирования программ, написанных на языке C ++.
Все теоретические положения детально демонстрируются на практических примерах, опытными преподавателями Центра «Специалист».
Вы изучите объектно-ориентированный язык программирования C++, на котором, как правило, работают настоящие профессионалы, научитесь разрабатывать Windows-приложения.
В курсе программирования на Visual С ++» рассматривается почти полностью стандарт ANSI C, поскольку, следуя ему, можно повысить уровень переносимости программных кодов.
Курс Visual С ++ не предназначен исключительно для Си-программистов в Windows, DOS или Unix, он предназначен для всех Си-программистов.
В нем приведены полезные переносимые сведения и подключаемые исходные коды, которые можно использовать на различных платформах.
Полнота изложения, точность, выверенность, актуальность, изобилие практических примеров и учебных заданий — вот лишь краткий перечень очевидных достоинств курса обучения по Visual С++. Иллюстрация алгоритмов на одном из наиболее эффективных языков Visual С ++ лишний раз подчеркивает их популярность.
Файлы примеров: присутствуют
Формат видео: WMV.
Видео 1: (Модуль 1-9.2, 10.2-12.2) WMV3, 1024х768 px, ~80kbps, 29.97fps.
Аудио 1: WMA, 48 kbps, 44,1 kHz, mono.
Видео 2: (Модуль 8.1) WMV3, 1024x768 px, 176kbps, 10fps.
Аудио 2: WMA, 48 kbps, 44,1 kHz, stereo.-[url=viewtopic.php?t=4999375]Программирование на языке C[/url]-

Содержание

Модуль 1. Типы данных, операции и функции в С++
*Ссылочный тип данных.
*Операции - расширения контекста, new, delete.
*Встроенные inline-функции.
*Перегрузка функций. Аргументы по умолчанию.
Модуль 2. Инкапсуляция
*Декларация класса.
*Управление доступом.
*Указатель this. Дружественные классы и функции.
Модуль 3. Специальные методы класса
*Конструкторы умолчания, преобразования копирования.
*Деструкторы.
Модуль 4. Перегрузка операций
*Методы преобразования. Классы потоков C++.
*Операции замещения и вставки.
*Ввод/вывод в файлы.
Модуль 5. Статические элементы данных
*Static -методы.
*Константные объекты и методы.
*Правила инициализации и использования.
Модуль 6. Наследование и полиморфизм
*Виртуальные функции и позднее связывание.
*Множественное наследование
*Виртуальный базовый класс.
*Чистые виртуальные функции и абстрактные классы.
Модуль 7. Шаблоны функций и классов
*Определение, специализация и использование шаблонов.
*Перегрузка template функций.
Модуль 8. Управление исключениями
*Применение операторов try, catch, throw.
*Динамическая идентификация типов времени выполнения (RTTI).
*Операции приведения типа.
Модуль 9. Использование Microsoft Developer Studio
*Интерфейс Developer Studio (Мастерской разработчика).
*Создание консольного приложения и Win32 приложения.
*Понятие проекта и просмотр компонентов проекта.
*Виды ресурсов Developer Studio.
*Формирование визуального графического интерфейса в редакторе ресурсов.
Модуль 10. Структура приложения Windows
*Главная функция Windows-приложения WinMain().
*Структура приложения Windows.
*Загрузка стандартных ресурсов Windows.
*Механизм сообщений Windows, цикл обработки сообщений.
*Функция управления окном приложения.
*Сообщения, посылаемые окну приложения, и их обработка.
Модуль 11. Графика под Windows
*Контекст устройства.
*Обработка сообщения WM_PAINT.
*Вывод графических образов.
*Битовые образы.
Модуль 12. Итоговое занятие

Особенности

0. Этот курс не "с нуля". Предполагается, что слушатели уже знакомы со структурным языком С99 и уже умеют написать wprintf(L"Hello world!\n");
1. 2-3 часовые видео, во время перерыва лекции, разделены на модули продолжительностью от полу- до полутора часов каждый.
2. Для просмотра видео НЕ требуется специфический кодек.
3. Модуль 10 был битый изначально. Риперу сорца удалось частично его восстановить, однако при прокрутке видео оно зависало.
Также в конце модуля 10.2 небыло звука. Первую проблему удалось решить. Вторую-нет из-за физического отсутствия звука.
4. Видео жмётся почти вдвое!

Подробные тех. данные

Media Info

Модуль 1. Типы данных, операции и функции в С++. Часть 1.wmv

GeneralComplete name : D:\...\Модуль 1. Типы данных, операции и функции в С++. Часть 1.wmvFormat : Windows MediaFile size : 71.1 MiBDuration : 1h 32mnOverall bit rate mode : VariableOverall bit rate : 108 KbpsMaximum Overall bit rate : 7 580 KbpsEncoded date : UTC 2013-07-14 12:09:31.900Writing application : 5.7 Build 1172 / GoToMeetingBitRateFrom the writer : 102866Audio samples : 130927Video samples : 29739recording time : Вс, 14 июл 2013 18:44:35 Московское время (лето)
VideoID : 2Format : VC-1Format profile : MP@HLCodec ID : WMV3Codec ID/Info : Windows Media Video 9Codec ID/Hint : WMV3Description of the codec : Windows Media Video 9Duration : 1h 32mnBit rate mode : VariableBit rate : 564 KbpsWidth : 1 024 pixelsHeight : 768 pixelsDisplay aspect ratio : 4:3Frame rate : 29.970 fpsColor space : YUVChroma subsampling : 4:2:0Bit depth : 8 bitsScan type : ProgressiveCompression mode : LossyBits/(Pixel*Frame) : 0.024Stream size : 372 MiB
AudioID : 1Format : WMAFormat version : Version 2Codec ID : 161Codec ID/Info : Windows Media AudioDescription of the codec : Windows Media Audio 9.2 - 48 kbps, 44 kHz, mono 1-pass CBRDuration : 1h 32mnBit rate mode : ConstantBit rate : 48.0 KbpsChannel(s) : 1 channelSampling rate : 44.1 KHzBit depth : 16 bitsStream size : 31.6 MiB (44%)

Модуль 10. Структура приложения Windows. Часть 1.wmv

GeneralComplete name : C:\...\Модуль 10. Структура приложения Windows. Часть 1.wmvFormat : Windows MediaFile size : 129 MiBDuration : 1h 17mnOverall bit rate mode : ConstantOverall bit rate : 231 KbpsMaximum Overall bit rate : 1 034 KbpsEncoded date : UTC 2016-02-27 00:59:06.452SfOriginalFPS : 125000
VideoID : 2Format : VC-1Format profile : Advanced@L2Codec ID : WVC1Codec ID/Hint : MicrosoftDescription of the codec : Windows Media Video 9 Advanced ProfileDuration : 1h 17mnBit rate mode : ConstantBit rate : 976 KbpsWidth : 1 024 pixelsHeight : 768 pixelsDisplay aspect ratio : 4:3Frame rate : 12.500 fpsColor space : YUVChroma subsampling : 4:2:0Bit depth : 8 bitsScan type : ProgressiveCompression mode : LossyBits/(Pixel*Frame) : 0.099Stream size : 544 MiBLanguage : Russian
AudioID : 1Format : WMAFormat profile : ProCodec ID : 162Codec ID/Info : Windows Media AudioDescription of the codec : Windows Media Audio 10 Professional - 48 kbps, 44 kHz, 2 channel 16 bit (A/V) 1-pass CBRDuration : 1h 17mnBit rate mode : ConstantBit rate : 48.0 KbpsChannel(s) : 2 channelsSampling rate : 44.1 KHzBit depth : 16 bitsStream size : 26.8 MiB (21%)Language : Russian

avidump

Модуль 1. Типы данных, операции и функции в С++. Часть 1.wmv
File: C:\...\Debug\Модуль 1. Типы данных, операции и функции в С++. Часть 1.wmv
Duration: 01:32:06 (5525.96)
Track #1: video
lang: Unknown (1)
codc: WMV3 -> WMV9/3 (19)
reso: 1024x768 -> Unknown (aka not common)
fram: 0 fps
rate: 56 kbps (55.829)
dura: 00:00:00 (0)
size: 0.00 B (0)
Track #2: audio
lang: Unknown (1)
codc: 161 -> WMA (DivX Audio) (3)
chan: 1 -> Mono
samp: 44100 Hz
rate: 48 kbps (48.02)
dura: 00:00:00 (0.00)
size: 0.00 B (0)
Sizes: (check sanity)
disk: 71.14 MB (74595370)
trac: 0.00 B (0) [based on track size]
bitr: 68.41 MB (71735937) [based on bitrate]
tdif: 71.14 MB (74595370) 100.00%
bdif: 2.73 MB (2859432) 3.83%

Модуль 1. Типы данных, операции и функции в С++. Часть 2.wmv

File: C:\...\Модуль 02 - Структура программы. Часть 1.wmv
Duration: 01:00:21 (3621.04)
Track #1: video
lang: Unknown (1)
codc: WMV3 -> WMV9/3 (19)
reso: 1280x1024 -> Unknown (aka not common)
fram: 0 fps
rate: 78 kbps (78.431)
dura: 00:00:00 (0)
size: 0.00 B (0)
Track #2: audio
lang: Unknown (1)
codc: 161 -> WMA (DivX Audio) (3)
chan: 1 -> Mono
samp: 44100 Hz
rate: 48 kbps (48.02)
dura: 00:00:00 (0.00)
size: 0.00 B (0)
Sizes: (check sanity)
disk: 56.57 MB (59319922)
trac: 0.00 B (0) [based on track size]
bitr: 54.59 MB (57237358) [based on bitrate]
tdif: 56.57 MB (59319922) 100.00%
bdif: 1.99 MB (2082563) 3.51%

Модуль 10. Структура приложения Windows. Часть 1.wmv

File: C:\...\Модуль 10. Структура приложения Windows. Часть 1.wmv
Duration: 01:17:56 (4675.65)
Track #1: video
lang: Unknown (1)
codc: WVC1 -> Codec not recognized. (255)
reso: 1024x768 -> Unknown (aka not common)
fram: 0 fps
rate: 176 kbps (176.484)
dura: 00:00:00 (0)
size: 0.00 B (0)
Track #2: audio
lang: Unknown (1)
codc: 162 -> WMA (DivX Audio) (3)
chan: 2 -> Stereo
samp: 44100 Hz
rate: 48 kbps (48.02)
dura: 00:00:00 (0.00)
size: 0.00 B (0)
Sizes: (check sanity)
disk: 128.82 MB (135073574)
trac: 0.00 B (0) [based on track size]
bitr: 125.14 MB (131214988) [based on bitrate]
tdif: 128.82 MB (135073574) 100.00%
bdif: 3.68 MB (3858585) 2.85%

Скриншоты

Модуль 1-9.2, 10.2-12.2

Модуль 10.1


Доп. информация

Возможно, позже в раздачу добавлю ещё одни уроки по С++ этого же года. В принципе там тоже самое, но изложение немного другое.

_________________
Показать сообщения:    

Текущее время: Сегодня 05:58

Часовой пояс: GMT



Вы не можете начинать темы
Вы не можете отвечать на сообщения
Вы не можете редактировать свои сообщения
Вы не можете удалять свои сообщения
Вы не можете голосовать в опросах
Вы не можете прикреплять файлы к сообщениям
Вы не можете скачивать файлы