Ивановский Торрент трекер
Яндекс.Погода
 

[Цитировать]
HUNTER

[Специалист] Комплексная программа. Программирование в системе 1С:Предприятие 8.3 (2014)
Страна: Россия
Тематика: Программирование
Тип материала: Видео Урок
Продолжительность: 67ч:49м:18с
Язык: Русский
Перевод: Не требуется
Год выпуска: 2014
Сайт производителя: www.specialist.ru/track/t-1c83
Автор: Афанасьев Сергей
Файлы примеров: Присутствуют
Формат видео: MP4
Видео: AVC, 1918x1080, 4:3, 25.000 кадров/сек, 116 Кбит/сек
Аудио: AAC, 44,1 КГц, ~96.0 Кбит/сек, 2 канала
Описание:
Наши эксперты разработали для Вас комплексную программу подготовки «Программирование в системе 1С: Предприятие».
Пройдя обучение по комплексной программе, Вы получите все необходимые знания и навыки для успешной разработки и модификации прикладных решений на базе системы «1С: Предприятие 8.3». Программа составлена с учетом наиболее распространенных требований работодателей к сотрудникам.

Содержание

1. 1С: Предприятие 8.3. Первые шаги разработчика
По окончании курса Вы будете уметь:
-ориентироваться в структуре новой версии системы «1С: Предприятие 8.3»;
-понимать общие принципы разработки системы;
-выбирать пути дальнейшего изучения и освоения системы «1С: Предприятие 8»;
-использовать базовые навыки работы в среде «1С: Предприятие 8»;
-работать со справочниками, документами и другими объектами, настраивать их свойства;
-на начальном уровне работать с основными элементами управления формы, обработчиком событий и другим функционалом системы.
2. 1С: Предприятие 8.3. Введение в конфигурирование. Основные объекты
По окончании курса Вы будете уметь:
-Будете понимать общие принципы построения системы «1С: Предприятие 8»
-Овладеете базовыми навыками работы в среде «1С: Предприятие 8»
3. Использование запросов в системе «1С: Предприятие 8». Язык запросов
По окончании курса Вы будете уметь:
-Писать запросы
-Работать с конструктором запросов
-Корректно использовать различные виды таблиц ИБ
-Познакомитесь с особенностями работы с виртуальными таблицами регистров
4. 1С: Предприятие 8.3. Решение оперативных задач
По окончании курса Вы будете уметь:
-Работать с регистрами накопления
-Писать алгоритмы обусловленного проведения документов
-Использовать механизм управляемых блокировок
-Познакомятся со способами повышения производительности решений
5. 1С: Предприятие 8.3. Решение бухгалтерских задач
По окончании курса Вы будете уметь:
-Самостоятельно проектировать план счетов и регистр бухгалтерии для решения задач синтетического, многофирменного, аналитического, количественного и валютных видом учета;
-Корректно заполнять регистр движениями по всем видам учета как при проведении документов, так и при записи ручных операций;
-Описывать оптимальные сложные обработки проведения первичных и регламентных документов с анализом итогов регистра бухгалтерии в многопользовательском режиме при использовании конфигурацией управляемых блокировок;
-Использовать механизм компоновки данных для разработки любых бухгалтерских отчетов, как сводных синтетических, так и детальных аналитических.
6. 1С: Предприятие 8.3. Решение расчетных задач
По окончании курса Вы будете уметь:
-Уверенно владеть инструментарием «1С: Предприятие 8.3»
-Знать и уметь применять на практике методики решения задач автоматизации расчета зарплаты и учета персонала
-Уметь контролировать производительность разрабатываемого решения
-Понимать взаимосвязи объектов конфигурации, физических таблиц и виртуальных таблиц регистра расчета
-Находить и корректно исправлять ошибки: как методологические, так и программные
-Владеть функционалом платформы «1С: Предприятие 8.3» в части, необходимой для решения расчетных задач
7. 1С: Предприятие 8.3. Средства интеграции и обмена данными
По окончании курса Вы будете уметь:
-Работать с текстовыми файлами и документами
-Работать с файлами .dbf
-Организовывать интернет-соединения
-Работать с электронной почтой и использовать протоколы http, ftp
-Использовать технологии OLE и COM
-Использовать последовательную модель доступа к XML
-Использовать XDTO и смешанную модель XML
-Организовывать обмен данными
-Использовать механизмы объекта «Планы Обмена»
-Использовать конфигурацию «Конвертация данных»

MediaInfo

General
Complete name : 2.1.mp4
Format : MPEG-4
Format profile : Base Media / Version 2
Codec ID : mp42
File size : 478 MiB
Duration : 5h 6mn
Overall bit rate mode : Variable
Overall bit rate : 218 Kbps
Encoded date : UTC 2036-02-06 06:28:16
Tagged date : UTC 2036-02-06 06:28:16
Writing application : HandBrake 0.10.2 2015060900
Video
ID : 1
Format : AVC
Format/Info : Advanced Video Codec
Format profile : Main@L4
Format settings, CABAC : Yes
Format settings, ReFrames : 4 frames
Codec ID : avc1
Codec ID/Info : Advanced Video Coding
Duration : 5h 6mn
Bit rate : 116 Kbps
Width : 1 918 pixels
Height : 1 080 pixels
Display aspect ratio : 4:3
Frame rate mode : Variable
Frame rate : 25.000 fps
Minimum frame rate : 15.820 fps
Maximum frame rate : 25.000 fps
Color space : YUV
Chroma subsampling : 4:2:0
Bit depth : 8 bits
Scan type : Progressive
Bits/(Pixel*Frame) : 0.002
Stream size : 255 MiB (53%)
Writing library : x264 core 142 r2479 dd79a61
Encoded date : UTC 2036-02-06 06:28:16
Tagged date : UTC 2036-02-06 06:28:16
Color range : Limited
Color primaries : BT.709
Transfer characteristics : BT.709
Matrix coefficients : BT.709
Audio
ID : 2
Format : AAC
Format/Info : Advanced Audio Codec
Format profile : LC
Codec ID : 40
Duration : 5h 6mn
Bit rate mode : Variable
Bit rate : 96.0 Kbps
Channel(s) : 2 channels
Channel positions : Front: L R
Sampling rate : 44.1 KHz
Compression mode : Lossy
Stream size : 211 MiB (44%)
Title : Stereo / Stereo
Encoded date : UTC 2036-02-06 06:28:16
Tagged date : UTC 2036-02-06 06:28:16

Скриншоты

Показать сообщения:    

Текущее время: 24-Сен 12:58

Часовой пояс: UTC - 1


Вы не можете начинать темы
Вы не можете отвечать на сообщения
Вы не можете редактировать свои сообщения
Вы не можете удалять свои сообщения
Вы не можете голосовать в опросах
Вы не можете прикреплять файлы к сообщениям
Вы не можете скачивать файлы

!ВНИМАНИЕ!
Сайт не предоставляет электронные версии произведений, а занимается лишь коллекционированием и каталогизацией ссылок, присылаемых и публикуемых на форуме нашими читателями. Если вы являетесь правообладателем какого-либо представленного материала и не желаете, чтобы ссылка на него находилась в нашем каталоге, свяжитесь с нами, и мы незамедлительно удалим ее. Файлы для обмена на трекере предоставлены пользователями сайта, и администрация не несет ответственности за их содержание. Просьба не заливать файлы, защищенные авторскими правами, а также файлы нелегального содержания!