Важное объявление!
У Нас Все раздачи мультитрекерные, при нуле пиров в релизах, можете смело вставать на закачку!
 
Автор Сообщение

HUNTER

Стаж:
4 года 9 месяцев
Сообщений:
65057

Репутация: 101

[+] [-]
Вне форума [Профиль] [ЛС]


Спаун
Spawn
-

  • Год производства: 1997

  • Страна: USA

  • Жанр: Боевик, Триллер, Ужасы, Комикс

  • Продолжительность: 01:38:29

  • Перевод#1: Профессиональный (многоголосый закадровый) |Союз Видео|

  • Перевод#2: Авторский (одноголосый закадровый) |Живов|

  • Субтитры: Отсутствуют-
  • Режиссер: Марк Э. З. Диппе / Mark A.Z. Dippe-
  • В ролях: Джон Легуизамо, Мартин Шин, Тереза Рэндл, Майко Хьюз, Д.Б. Суини, Майкл Джэй Уайт, Мелинда Кларк, Никол Уильямсон, Сидни Бодуан-
  • Описание: «Краповый берет» Эл Симмонс убит своим начальником во время выполнения очередной миссии. Попав в чистилище, он заключает сделку с Дьяволом. Сатана дает ему силу, доспехи и оружие. В обмен на то, чтобы еще раз увидеть свою жену, Симмонс должен предварить приход сил Зла на Землю. Оказавшись на свободе, он разрывает контракт в одностороннем порядке…
    -
  • Качество видео: BDRip 1080p

  • Формат видео: mkv

  • Видео кодек: H264

  • Аудио кодек: AC3|DTS

  • Видео: 1920x1080 (16:9), 23.976 fps, 11.1 Mbps, 0.223 bit/pixel

  • Аудио#1: 48 kHz, AC3 2 ch ~192 kbps avg - MVO - Союз Видео

  • Аудио#2: 48 kHz, DTS 6 ch ~1510 kbps avg - AVO - Ю. Живов

  • Аудио#3: 48 kHz, DTS 6 ch ~1510 kbps avg - Оригинал-
  • Автор рипа: falco
-

Доп. информация

Скриншоты

Скриншоты

MediaInfo

Код: copyText_writeLink('this.parentNode.parentNode.nextSibling.nextSibling');
General
Unique ID : 186096692595226420319472652315605949210 (0x8C00EB5611A3E13D9025BF320C115B1A)
Complete name : D:\Spawn.1997.BDRip.1080p.falco.mkv
Format : Matroska
Format version : Version 4 / Version 2
File size : 9.86 GiB
Duration : 1h 38mn
Overall bit rate : 14.3 Mbps
Encoded date : UTC 2013-09-17 15:17:47
Writing application : mkvmerge v6.4.1 ('Omega Point') built on Sep 16 2013 22:05:10
Writing library : libebml v1.3.0 + libmatroska v1.4.1
Video
ID : 1
Format : AVC
Format/Info : Advanced Video Codec
Format profile : [url=mailto:Main@L4.1]Main@L4.1[/url]
Format settings, CABAC : Yes
Format settings, ReFrames : 5 frames
Codec ID : V_MPEG4/ISO/AVC
Duration : 1h 38mn
Bit rate : 11.1 Mbps
Width : 1 920 pixels
Height : 1 080 pixels
Display aspect ratio : 16:9
Frame rate : 23.976 fps
Color space : YUV
Chroma subsampling : 4:2:0
Bit depth : 8 bits
Scan type : Progressive
Bits/(Pixel*Frame) : 0.223
Stream size : 7.45 GiB (76%)
Writing library : x264 core 130 r2273 b3065e6
Encoding settings : cabac=1 / ref=5 / deblock=1:-3:-3 / analyse=0x1:0x131 / me=umh / subme=10 / psy=1 / psy_rd=1.00:0.00 / mixed_ref=1 / me_range=16 / chroma_me=1 / trellis=2 / 8x8dct=0 / cqm=0 / deadzone=21,11 / fast_pskip=0 / chroma_qp_offset=-4 / threads=6 / lookahead_threads=1 / sliced_threads=0 / nr=0 / decimate=0 / interlaced=0 / bluray_compat=0 / constrained_intra=0 / bframes=5 / b_pyramid=2 / b_adapt=0 / b_bias=0 / direct=3 / weightb=1 / open_gop=0 / weightp=2 / keyint=250 / keyint_min=23 / scenecut=40 / intra_refresh=0 / rc_lookahead=50 / rc=2pass / mbtree=1 / bitrate=11104 / ratetol=1.0 / qcomp=0.60 / qpmin=0 / qpmax=69 / qpstep=4 / cplxblur=20.0 / qblur=0.5 / ip_ratio=1.40 / aq=1:1.00
Default : Yes
Forced : No
Audio #1
ID : 2
Format : AC-3
Format/Info : Audio Coding 3
Format profile : Dolby Digital
Mode extension : CM (complete main)
Format settings, Endianness : Big
Codec ID : A_AC3
Duration : 1h 38mn
Bit rate mode : Constant
Bit rate : 192 Kbps
Channel(s) : 2 channels
Channel positions : Front: L R
Sampling rate : 48.0 KHz
Bit depth : 16 bits
Compression mode : Lossy
Stream size : 135 MiB (1%)
Title : Многоголосый
Language : Russian
Default : Yes
Forced : No
Audio #2
ID : 3
Format : DTS
Format/Info : Digital Theater Systems
Codec ID : A_DTS
Duration : 1h 38mn
Bit rate mode : Constant
Bit rate : 1 510 Kbps
Channel(s) : 6 channels
Channel positions : Front: L C R, Side: L R, LFE
Sampling rate : 48.0 KHz
Bit depth : 16 bits
Compression mode : Lossy
Stream size : 1.04 GiB (11%)
Title : Одноголосый
Language : Russian
Default : No
Forced : No
Audio #3
ID : 4
Format : DTS
Format/Info : Digital Theater Systems
Codec ID : A_DTS
Duration : 1h 38mn
Bit rate mode : Constant
Bit rate : 1 510 Kbps
Channel(s) : 6 channels
Channel positions : Front: L C R, Side: L R, LFE
Sampling rate : 48.0 KHz
Bit depth : 24 bits
Compression mode : Lossy
Stream size : 1.04 GiB (11%)
Title : Оригинал
Language : English
Default : No
Forced : No

_________________
Показать сообщения:    

Текущее время: Сегодня 13:31

Часовой пояс: GMT



Вы не можете начинать темы
Вы не можете отвечать на сообщения
Вы не можете редактировать свои сообщения
Вы не можете удалять свои сообщения
Вы не можете голосовать в опросах
Вы не можете прикреплять файлы к сообщениям
Вы не можете скачивать файлы