Ивановский Торрент трекер
Яндекс.Погода
 

[Цитировать]
HUNTER

Спасти Землю / Echo Planet
Страна: Таиланд
Жанр: Мультфильм
Продолжительность: 01:22:05
Год выпуска: 2012
Перевод: Профессиональный (дублированный) R5/Кинолюкс
Русские субтитры: нет
Режиссёр: Компин Кемгумнирд / Kompin Kemgumnird
Описание: Простой американский мальчик, Сэмуэл Джонсон младший, вступил в бойскауты и пропал во время похода. Правда, он сын президента, так что он не может пропасть просто так — и обязательно найдет выход. Сэм провалился сквозь землю и оказался на противоположном конце света- в непроходимых джунглях. Именно там его ожидает страшное известие — из-за того, что люди перестали беречь Землю наша планета в опасности и только он может ее спасти. А помогать ему в этом нелегком деле будет бесстрашная воительница Нарва со своим братом. Друзей ждут необыкновенны приключения и практически нереальная задача — cпасти Землю, когда против тебя весь мир.
Доп. информация: Русская дорожка с канала Кинолюкс. Дубляж тот же, что и на лицензии, но отличается музыкой в финальных титрах.
Семпл: http://multi-up.com/1015404
Качество: HDRip
Формат: AVI
Видео: MPEG4, XviD, 720x304 (2.35), 23.976 fps, 1 622 Kbps (0.309 bit/pixel)
Аудио: AC-3, 48.0 KHz, 6 ch, 448 Kbps, CBR - русский
Аудио 2: AC-3, 48.0 KHz, 6 ch, 448 Kbps, CBR - английский
Субтитры: нет

Подробные технические данные

ОбщееПолное имя : K:\Спасти Землю.aviФормат : AVIФормат/Информация : Audio Video InterleaveРазмер файла : 1,45 ГбайтПродолжительность : 1 ч. 22 м.Общий поток : 2531 Кбит/секНазвание фильма : Спасти Землю / Eсhо Рlanеt (2012)Программа кодирования : VirtualDubMod 1.5.10.2 (build 2540/release)Библиотека кодирования : VirtualDubMod build 2540/releaseПравообладатель : miha2154
ВидеоИдентификатор : 0Формат : MPEG-4 VisualПрофиль формата : Advanced Simple@L5Параметр BVOP формата : 1Параметр QPel формата : НетПараметр GMC формата : Без точки переходаПараметр матрицы формата : ВыборочнаяИдентификатор кодека : XVIDИдентификатор кодека/Подсказка : XviDПродолжительность : 1 ч. 22 м.Битрейт : 1622 Кбит/секШирина : 720 пикселейВысота : 304 пикселяСоотношение сторон : 2,35:1Частота кадров : 23,976 кадра/секЦветовое пространство : YUVСубдискретизация насыщенности : 4:2:0Битовая глубина : 8 битТип развёртки : ПрогрессивнаяМетод сжатия : С потерямиБит/(Пиксели*Кадры) : 0.309Размер потока : 952 Мбайт (64%)Библиотека кодирования : XviD 65
Аудио #1Идентификатор : 1Формат : AC-3Формат/Информация : Audio Coding 3Расширение режима : CM (complete main)Параметр Endianness формата : BigИдентификатор кодека : 2000Продолжительность : 1 ч. 21 м.Вид битрейта : ПостоянныйБитрейт : 448 Кбит/секКаналы : 6 каналовРасположение каналов : Front: L C R, Side: L R, LFEЧастота : 48,0 КГцБитовая глубина : 16 битМетод сжатия : С потерямиРазмер потока : 262 Мбайт (18%)Выравнивание : Разделение по промежуткамПродолжительность промежутка : 42 мс. (1,00 видеокадр)Время предзагрузки промежутка : 500 мс.Заголовок : Профессиональный (полное дублирование) Кинолюкс
Аудио #2Идентификатор : 2Формат : AC-3Формат/Информация : Audio Coding 3Расширение режима : CM (complete main)Параметр Endianness формата : BigИдентификатор кодека : 2000Продолжительность : 1 ч. 22 м.Вид битрейта : ПостоянныйБитрейт : 448 Кбит/секКаналы : 6 каналовРасположение каналов : Front: L C R, Side: L R, LFEЧастота : 48,0 КГцБитовая глубина : 16 битМетод сжатия : С потерямиРазмер потока : 263 Мбайт (18%)Выравнивание : Разделение по промежуткамПродолжительность промежутка : 42 мс. (1,00 видеокадр)Время предзагрузки промежутка : 500 мс.Заголовок : Английский

Скриншоты



Показать сообщения:    

Текущее время: 15-Дек 04:40

Часовой пояс: UTC ± 0


Вы не можете начинать темы
Вы не можете отвечать на сообщения
Вы не можете редактировать свои сообщения
Вы не можете удалять свои сообщения
Вы не можете голосовать в опросах
Вы не можете прикреплять файлы к сообщениям
Вы не можете скачивать файлы

!ВНИМАНИЕ!
Сайт не предоставляет электронные версии произведений, а занимается лишь коллекционированием и каталогизацией ссылок, присылаемых и публикуемых на форуме нашими читателями. Если вы являетесь правообладателем какого-либо представленного материала и не желаете, чтобы ссылка на него находилась в нашем каталоге, свяжитесь с нами, и мы незамедлительно удалим ее. Файлы для обмена на трекере предоставлены пользователями сайта, и администрация не несет ответственности за их содержание. Просьба не заливать файлы, защищенные авторскими правами, а также файлы нелегального содержания!