Ивановский Торрент трекер
Яндекс.Погода
 

[Цитировать]
HUNTER

Спасительный яд / Pain, Pus & Poison
Дата/Год выпуска: 2013
Страна: Великобритания
Жанр: Документальный, исторический
Продолжительность: ~00:44:20 на серию
Перевод: Студийный (одноголосый закадровый)
Доп. инфо о переводе: "Кириллица"
Русские субтитры: нет
Сэмпл: http://sendfile.su/1005851
Оригинальная аудиодорожка: нет
Режиссер: Алекс Фриман, Бен Кричтон / Alex Freeman, Ben Crichton
Телеканал: Discovery
Описание: Доктор Майкл Мозли исследует процесс эволюции в биохимии, превращения вредных и ядовитых веществ в медикаменты, спасающие людей.
Доп. информация: В связи с узостью исходящего канала (500 kbps) у "летнего" провайдера, прошу первых качающих набраться терпения!
качество: DVB
формат: MPG
Видео: 720x576 (16:9 PAL Anamorphic), MPEG2 [MPEG-PS], 25 fps, Interlaced, ABR 4100 kbps
Аудио: Russian, MPEG1-Layer 2, 48000 Hz, 2.0ch Stereo, CBR 192 kbps

Список выпусков/серий

  • Спасительный яд: Боль
  • Спасительный яд: Гной

MediaInfo

1 серия
ОбщееПолное имя : D:\RELEASE\Спасительный яд\01 - Спасительный яд - Боль.mpgФормат : MPEG-PSРазмер файла : 1,35 ГбайтПродолжительность : 44 м.Режим общего битрейта : ПеременныйОбщий поток : 4374 Кбит/сек
ВидеоИдентификатор : 224 (0xE0)Формат : MPEG VideoВерсия формата : Version 2Профиль формата : Main@MainПараметр BVOP формата : ДаПараметр матрицы формата : ВыборочнаяПараметр GOP формата : M=3, N=24Продолжительность : 44 м.Вид битрейта : ПеременныйБитрейт : 4095 Кбит/секМаксимальный битрейт : 15,0 Мбит/секШирина : 720 пикселейВысота : 576 пикселейСоотношение сторон : 16:9Частота кадров : 25,000 кадров/секСтандарт вещания : PALЦветовое пространство : YUVСубдискретизация насыщенности : 4:2:0Битовая глубина : 8 битТип развёртки : ЧересстрочнаяПорядок развёртки : Верхнее поле первоеМетод сжатия : С потерямиБит/(Пиксели*Кадры) : 0.395Временной код первого кадра : 00:00:01:00Оригинал временного кода : Group of pictures headerРазмер потока : 1,27 Гбайт (94%)
АудиоИдентификатор : 192 (0xC0)Формат : MPEG AudioВерсия формата : Version 1Профиль формата : Layer 2Продолжительность : 44 м.Вид битрейта : ПостоянныйБитрейт : 192 Кбит/секКаналы : 2 каналаЧастота : 48,0 КГцМетод сжатия : С потерямиЗадержка видео : -796 мс.Размер потока : 60,8 Мбайт (4%)

2 серия

ОбщееПолное имя : D:\RELEASE\Спасительный яд\02 - Спасительный яд - Гной.mpgФормат : MPEG-PSРазмер файла : 1,36 ГбайтПродолжительность : 44 м.Режим общего битрейта : ПеременныйОбщий поток : 4374 Кбит/сек
ВидеоИдентификатор : 224 (0xE0)Формат : MPEG VideoВерсия формата : Version 2Профиль формата : Main@MainПараметр BVOP формата : ДаПараметр матрицы формата : ВыборочнаяПараметр GOP формата : M=3, N=24Продолжительность : 44 м.Вид битрейта : ПеременныйБитрейт : 4095 Кбит/секМаксимальный битрейт : 15,0 Мбит/секШирина : 720 пикселейВысота : 576 пикселейСоотношение сторон : 16:9Частота кадров : 25,000 кадров/секСтандарт вещания : PALЦветовое пространство : YUVСубдискретизация насыщенности : 4:2:0Битовая глубина : 8 битТип развёртки : ЧересстрочнаяПорядок развёртки : Верхнее поле первоеМетод сжатия : С потерямиБит/(Пиксели*Кадры) : 0.395Временной код первого кадра : 00:00:01:00Оригинал временного кода : Group of pictures headerРазмер потока : 1,27 Гбайт (94%)
АудиоИдентификатор : 192 (0xC0)Формат : MPEG AudioВерсия формата : Version 1Профиль формата : Layer 2Продолжительность : 44 м.Вид битрейта : ПостоянныйБитрейт : 192 Кбит/секКаналы : 2 каналаЧастота : 48,0 КГцМетод сжатия : С потерямиЗадержка видео : -700 мс.Размер потока : 61,1 Мбайт (4%)

Скриншоты

Показать сообщения:    

Текущее время: 19-Сен 12:29

Часовой пояс: UTC - 1


Вы не можете начинать темы
Вы не можете отвечать на сообщения
Вы не можете редактировать свои сообщения
Вы не можете удалять свои сообщения
Вы не можете голосовать в опросах
Вы не можете прикреплять файлы к сообщениям
Вы не можете скачивать файлы

!ВНИМАНИЕ!
Сайт не предоставляет электронные версии произведений, а занимается лишь коллекционированием и каталогизацией ссылок, присылаемых и публикуемых на форуме нашими читателями. Если вы являетесь правообладателем какого-либо представленного материала и не желаете, чтобы ссылка на него находилась в нашем каталоге, свяжитесь с нами, и мы незамедлительно удалим ее. Файлы для обмена на трекере предоставлены пользователями сайта, и администрация не несет ответственности за их содержание. Просьба не заливать файлы, защищенные авторскими правами, а также файлы нелегального содержания!