Важное объявление!
У Нас Все раздачи мультитрекерные, при нуле пиров в релизах, можете смело вставать на закачку!
 
Автор Сообщение

HUNTER

Стаж:
4 года 8 месяцев
Сообщений:
62116

Репутация: 101

[+] [-]
Вне форума [Профиль] [ЛС]

Спарта- -Страна: Россия
Жанр: боевик, драма
Год выпуска: 2016
Производство: «Арго Фильм»
Продолжительность: 01:22:45
Оригинальная аудиодорожка: русский
Cубтитры: нет-Режиссер: Николай Кудряшов-В ролях:
Николай Кудряшов, Денис Никифоров, Ян Цапник, Владимир Епифанцев, Наталия Власова, Максим Коновалов, Андрей Семёнов,
Михаил Малютин, Александр Шлеменко, Олег Гаас, Ольга Павлюкова, Михаил Грубов, Марина Даминева, Яна Енжаева, Оксана Базилевич-Описание:
Прямоугольный ринг и две команды бойцов друг напротив друга. Когда силы кончаются, товарища сменяет тот, кто за спиной… Это — Спарта!
Новый зрелищный вид единоборств. «Спарта» для бывшего чемпиона по боям без правил Николая — единственная возможность вернуться в большой спорт и решить все проблемы,
которые свалились на него три года назад: драка за честь подруги и тюрьма, предательство возлюбленной и отказ тренера в возвращении в команду.
Вместе с верными друзьями спортсмен готов бросить вызов всему миру, и ставкой в бои станет его будущая жизнь.-Возраст: 16+-Качество: WEB-DL 1080p
Формат: MKV
Видео кодек: AVC
Аудио кодек: AC3

Видео: AVC, 1920 х 816 (16:9), 25,000 кадр/сек, 4 870 Кбит/сек, 0.124 bit/pixel
Аудио: AC3, 48000 Hz, 384 Kbps, 6 каналов
-

MediaInfo

General
Unique ID : 189425678723599682344619662404310849771 (0x8E820F063D7434ED9616470EE53CD8EB)
Complete name : D:\Раздачи\Спарта WEB-DL (1080p)\Спарта WEB-DL (1080p).mkv
Format : Matroska
Format version : Version 2
File size : 3.04 GiB
Duration : 1h 22mn
Overall bit rate : 5 255 Kbps
Encoded date : UTC 2016-09-22 18:27:36
Writing application : mkvmerge v8.3.0 ('Over the Horizon') 64bit
Writing library : libebml v1.3.1 + libmatroska v1.4.2
Video
ID : 1
Format : AVC
Format/Info : Advanced Video Codec
Format profile : High@L4
Format settings, CABAC : Yes
Format settings, ReFrames : 5 frames
Format settings, GOP : N=1
Codec ID : V_MPEG4/ISO/AVC
Duration : 1h 22mn
Bit rate : 4 870 Kbps
Width : 1 920 pixels
Height : 816 pixels
Display aspect ratio : 2.35:1
Frame rate mode : Constant
Frame rate : 25.000 fps
Color space : YUV
Chroma subsampling : 4:2:0
Bit depth : 8 bits
Scan type : Progressive
Bits/(Pixel*Frame) : 0.124
Stream size : 2.82 GiB (93%)
Language : English
Default : Yes
Forced : No
Color range : Limited
Color primaries : BT.709
Transfer characteristics : BT.709
Matrix coefficients : BT.709
Audio
ID : 2
Format : AC-3
Format/Info : Audio Coding 3
Mode extension : CM (complete main)
Format settings, Endianness : Big
Codec ID : A_AC3
Duration : 1h 22mn
Bit rate mode : Constant
Bit rate : 384 Kbps
Channel(s) : 6 channels
Channel positions : Front: L C R, Side: L R, LFE
Sampling rate : 48.0 KHz
Frame rate : 31.250 fps (1536 spf)
Compression mode : Lossy
Stream size : 227 MiB (7%)
Language : Russian
Default : Yes
Forced : No
Menu
00:00:00.000 : en:Глава 1
00:07:05.280 : en:Глава 2
00:13:48.880 : en:Глава 3
00:20:25.280 : en:Глава 4
00:27:00.320 : en:Глава 5
00:32:53.880 : en:Глава 6
00:38:38.640 : en:Глава 7
00:44:47.240 : en:Глава 8
00:50:52.240 : en:Глава 9
00:57:14.240 : en:Глава 10
01:02:50.760 : en:Глава 11
01:08:57.920 : en:Глава 12
01:14:26.720 : en:Глава 13

Скриншоты

-Раздаю до первых 5-ти скачавших, на раздачи не возвращаюсь...-

_________________
Показать сообщения:    

Текущее время: Сегодня 14:38

Часовой пояс: GMT



Вы не можете начинать темы
Вы не можете отвечать на сообщения
Вы не можете редактировать свои сообщения
Вы не можете удалять свои сообщения
Вы не можете голосовать в опросах
Вы не можете прикреплять файлы к сообщениям
Вы не можете скачивать файлы
Наши партнеры: интернет магазин Ивановского трикотажа textilla.ru