Ивановский Торрент трекер
Яндекс.Погода
 

[Цитировать]
HUNTER

Спартак / Spartacus / Restored Edition
Страна: США
Студия: Universal Pictures
Жанр: драма, биография, история
Год выпуска: 1960
Продолжительность: 3:16:44
Перевод: Профессиональный (дублированный) Советский дубляж
Перевод 2: Профессиональный (многоголосый закадровый) Супербит
Перевод 3: Профессиональный (двухголосый закадровый) Гланц и Королёва
Перевод 4: Авторский (одноголосый закадровый) Ю. Живов
Cубтитры: английские
Оригинальная аудиодорожка: английский
Режиссер: Стэнли Кубрик / Stanley Kubrick
В ролях: Кирк Дуглас, Херберт Лом, Джин Симмонс, Лоуренс Оливье, Чарлз Лотон, Питер Устинов, Джон Гэвин, Нина Фош, Джон Айрлэнд, Вуди Строд, Тони Кертис
Описание: Режиссер рассказывает в своей знаменитой картине историю отчаянного раба - гладиатора Спартака, его возлюбленной Варинии и честолюбивого римского полководца Красса. Непреодолимая тяга к свободе заставляет Спартака поднять легендарное восстание рабов, ставшее важнейшей вехой мировой истории.
Грандиозные съемки, умопомрачительные батальные сцены и непревзойденное мастерство классика - постановщика картины Стэнли Кубрика - сделали этот фильм настоящей жемчужиной в сокровищнице мирового кинематографа. В 1961 году картина была удостоена четырех премий Американской Киноакадемии "Оскар" (Лучшая мужская роль второго плана (Питер Устинов); Лучшая работа оператора; Лучшая работа художника; Лучшая работа художника по костюмам).
Доп. информация: В основе релиза рип от AMIABLE
Сэмпл: yadi.sk
Тип релиза: BDRip 1080p
Контейнер: MKV
Видео: 1920x872 (2.2:1), 23.976 fps, MPEG-4 AVC, 11.2 mbps
Аудио: Русский AC3 / 48.0 KHz / 2 ch. / 192 kbps / Советский дубляж
Аудио 2: Русский AC3 / 48.0 KHz / 5.1 ch. / 448 kbps / Супербит
Аудио 3: Русский AC3 / 48.0 KHz / 5.1 ch. / 448 kbps / Гланц и Королева
Аудио 4: Русский AC3 / 48.0 KHz / 5.1 ch. / 448 kbps / Ю. Живов
Аудио 5: Английский DTS / 48.0 KHz / 5.1 ch / 1509 Kbps
Формат субтитров: softsub (SRT)

MediaInfo

Общее
Уникальный идентификатор : 172580632228985897200151992135716929257 (0x81D5D21C38695827A345CAFBB7CF7EE9)
Полное имя : Spartacus.Restored Edition.mkv
Формат : Matroska
Версия формата : Version 4 / Version 2
Размер файла : 19,6 Гбайт
Продолжительность : 3 ч. 16 м.
Общий поток : 14,3 Мбит/сек
Дата кодирования : UTC 2015-10-26 15:34:27
Программа кодирования : mkvmerge v7.7.0 ('Six Voices') 64bit built on Feb 28 2015 23:39:33
Библиотека кодирования : libebml v1.3.1 + libmatroska v1.4.2
DURATION : 03:16:37.376000000
NUMBER_OF_FRAMES : 368668
NUMBER_OF_BYTES : 660653056
_STATISTICS_WRITING_APP : mkvmerge v7.7.0 ('Six Voices') 64bit built on Feb 28 2015 23:39:33
_STATISTICS_WRITING_DATE_UTC : 2015-10-26 15:34:27
_STATISTICS_TAGS : BPS DURATION NUMBER_OF_FRAMES NUMBER_OF_BYTES
Видео
Идентификатор : 1
Формат : AVC
Формат/Информация : Advanced Video Codec
Профиль формата : High@L4.1
Параметр CABAC формата : Да
Параметр ReFrames формата : 4 кадра
Идентификатор кодека : V_MPEG4/ISO/AVC
Продолжительность : 3 ч. 16 м.
Битрейт : 11,2 Мбит/сек
Ширина : 1920 пикселей
Высота : 872 пикселя
Соотношение сторон : 2,2:1
Режим частоты кадров : Постоянный
Частота кадров : 23,976 кадра/сек
Цветовое пространство : YUV
Субдискретизация насыщенности : 4:2:0
Битовая глубина : 8 бит
Тип развёртки : Прогрессивная
Бит/(Пиксели*Кадры) : 0.279
Размер потока : 15,0 Гбайт (77%)
Библиотека кодирования : x264 core 148 r2597 e86f3a1
Настройки программы : cabac=1 / ref=4 / deblock=1:-3:-3 / analyse=0x3:0x133 / me=umh / subme=9 / psy=1 / psy_rd=1.10:0.00 / mixed_ref=1 / me_range=24 / chroma_me=1 / trellis=2 / 8x8dct=1 / cqm=0 / deadzone=21,11 / fast_pskip=0 / chroma_qp_offset=-2 / threads=24 / lookahead_threads=2 / sliced_threads=0 / nr=0 / decimate=1 / interlaced=0 / bluray_compat=0 / constrained_intra=0 / bframes=3 / b_pyramid=2 / b_adapt=2 / b_bias=0 / direct=3 / weightb=1 / open_gop=0 / weightp=2 / keyint=240 / keyint_min=24 / scenecut=40 / intra_refresh=0 / rc_lookahead=60 / rc=2pass / mbtree=1 / bitrate=11218 / ratetol=1.0 / qcomp=0.60 / qpmin=0 / qpmax=69 / qpstep=4 / cplxblur=20.0 / qblur=0.5 / ip_ratio=1.40 / aq=3:0.80
Язык : English
Default : Да
Forced : Нет
DURATION : 03:16:43.793000000
NUMBER_OF_FRAMES : 283008
NUMBER_OF_BYTES : 16552002243
_STATISTICS_WRITING_APP : mkvmerge v7.7.0 ('Six Voices') 64bit built on Feb 28 2015 23:39:33
_STATISTICS_WRITING_DATE_UTC : 2015-10-26 15:34:27
_STATISTICS_TAGS : BPS DURATION NUMBER_OF_FRAMES NUMBER_OF_BYTES
Аудио #1
Идентификатор : 2
Формат : AC-3
Формат/Информация : Audio Coding 3
Расширение режима : CM (complete main)
Параметр Endianness формата : Big
Идентификатор кодека : A_AC3
Продолжительность : 3 ч. 16 м.
Вид битрейта : Постоянный
Битрейт : 192 Кбит/сек
Каналы : 2 канала
Расположение каналов : Front: L R
Частота : 48,0 КГц
Метод сжатия : С потерями
Размер потока : 270 Мбайт (1%)
Заголовок : Советский дубляж
Язык : Russian
Default : Да
Forced : Нет
Аудио #2
Идентификатор : 3
Формат : AC-3
Формат/Информация : Audio Coding 3
Расширение режима : CM (complete main)
Параметр Endianness формата : Big
Идентификатор кодека : A_AC3
Продолжительность : 3 ч. 16 м.
Вид битрейта : Постоянный
Битрейт : 448 Кбит/сек
Каналы : 6 каналов
Расположение каналов : Front: L C R, Side: L R, LFE
Частота : 48,0 КГц
Метод сжатия : С потерями
Размер потока : 630 Мбайт (3%)
Заголовок : Супербит
Язык : Russian
Default : Нет
Forced : Нет
Аудио #3
Идентификатор : 4
Формат : AC-3
Формат/Информация : Audio Coding 3
Расширение режима : CM (complete main)
Параметр Endianness формата : Big
Идентификатор кодека : A_AC3
Продолжительность : 3 ч. 16 м.
Вид битрейта : Постоянный
Битрейт : 448 Кбит/сек
Каналы : 6 каналов
Расположение каналов : Front: L C R, Side: L R, LFE
Частота : 48,0 КГц
Метод сжатия : С потерями
Размер потока : 630 Мбайт (3%)
Заголовок : Гланц и Королёва
Язык : Russian
Default : Нет
Forced : Нет
Аудио #4
Идентификатор : 5
Формат : AC-3
Формат/Информация : Audio Coding 3
Расширение режима : CM (complete main)
Параметр Endianness формата : Big
Идентификатор кодека : A_AC3
Продолжительность : 3 ч. 16 м.
Вид битрейта : Постоянный
Битрейт : 448 Кбит/сек
Каналы : 6 каналов
Расположение каналов : Front: L C R, Side: L R, LFE
Частота : 48,0 КГц
Метод сжатия : С потерями
Размер потока : 630 Мбайт (3%)
Заголовок : Ю. Живов
Язык : Russian
Default : Нет
Forced : Нет
Аудио #5
Идентификатор : 6
Формат : DTS
Формат/Информация : Digital Theater Systems
Режим : 16
Параметр Endianness формата : Big
Идентификатор кодека : A_DTS
Продолжительность : 3 ч. 16 м.
Вид битрейта : Постоянный
Битрейт : 1509 Кбит/сек
Каналы : 6 каналов
Расположение каналов : Front: L C R, Side: L R, LFE
Частота : 48,0 КГц
Битовая глубина : 24 бит
Метод сжатия : С потерями
Размер потока : 2,07 Гбайт (11%)
Язык : English
Default : Нет
Forced : Нет
Текст
Идентификатор : 7
Формат : UTF-8
Идентификатор кодека : S_TEXT/UTF8
Идентификатор кодека/Информация : UTF-8 Plain Text
Язык : English
Default : Нет
Forced : Нет
Меню
00:00:00.000 : en:00:00:00.000
00:04:03.368 : en:00:04:03.368
00:14:04.969 : en:00:14:04.969
00:19:04.935 : en:00:19:04.935
00:31:55.872 : en:00:31:55.872
00:43:12.840 : en:00:43:12.840
00:53:02.971 : en:00:53:02.971
01:01:46.494 : en:01:01:46.494
01:20:17.980 : en:01:20:17.980
01:41:46.392 : en:01:41:46.392
01:47:55.094 : en:01:47:55.094
01:50:17.736 : en:01:50:17.736
02:10:43.252 : en:02:10:43.252
02:30:02.118 : en:02:30:02.118
03:00:56.304 : en:03:00:56.304
03:10:08.856 : en:03:10:08.856

Скриншоты



Показать сообщения:    

Текущее время: 13-Дек 09:33

Часовой пояс: UTC ± 0


Вы не можете начинать темы
Вы не можете отвечать на сообщения
Вы не можете редактировать свои сообщения
Вы не можете удалять свои сообщения
Вы не можете голосовать в опросах
Вы не можете прикреплять файлы к сообщениям
Вы не можете скачивать файлы

!ВНИМАНИЕ!
Сайт не предоставляет электронные версии произведений, а занимается лишь коллекционированием и каталогизацией ссылок, присылаемых и публикуемых на форуме нашими читателями. Если вы являетесь правообладателем какого-либо представленного материала и не желаете, чтобы ссылка на него находилась в нашем каталоге, свяжитесь с нами, и мы незамедлительно удалим ее. Файлы для обмена на трекере предоставлены пользователями сайта, и администрация не несет ответственности за их содержание. Просьба не заливать файлы, защищенные авторскими правами, а также файлы нелегального содержания!