Ивановский Торрент трекер
Яндекс.Погода
 

[Цитировать]
HUNTER

Спартак: Кровь и песок / Spartacus: Blood and Sand- Год выпуска: 2010
Страна: США
Жанр: боевик, фэнтези, драма
Кол-во серий: 1-13 из 13
Продолжительность: ~54 мин--Перевод: Профессиональный (Многоголосый, закадровый) от LostFilm
Субтитры: нет--В ролях: Энди Уитфилд (Спартак), Джон Ханна (Батиат), Люси Лоулесс (Лукреция), Антонио Те Майохо (Барка), Крэйг Паркер (Глабр), Эрин Каммингс (Сура), Ману Беннетт (Крикс), Ник Тарабей (Ашур), Питер Менса (Наставник), Вива Бьянка (Илития), Джей Кортни (Варрон), Мэтт Джилландерс (Марцелл), Лесли-Энн Брандт (Нэвия), Кайл Прайор (Марк).
Режиссёр: Майкл Херст, Рик Джейкобсон, Джесси Уарн.--Описание: Легенда о фракийском воине Спартаке, попавшем в рабство к римлянам, ставшим гладиатором и возглавившим одно из самых массовых восстаний рабов в Древнем Риме - известна всем ещё со школьной скамьи. Создатели сериала дают нам возможность вновь окунуться в атмосферу античности и помогают древней легенде буквально заиграть новыми красками, с применением новейших технологий кинематографии.--Качество: BDRip | Формат: MKV | Видео кодек: H.264 | Аудио кодек: AC3
Видео: 720x400, ~747 Kbps, 23.976 fps
Аудио: 48.0 KHz, 2 ch, 128 Kbps
-

Mediainfo

Код: copyText_writeLink('this.parentNode.parentNode.nextSibling.nextSibling'); D:\Downloads\Spartacus Blood and Sand\Spartacus.s01e01.2010.BDRip.MVO.Lostfilm.mkv
General
Unique ID : 177282528750770344878097236363198942663 (0x855F5F81C363F43A875B9D6639B14DC7)
Complete name : D:\Downloads\Spartacus Blood and Sand\Spartacus.s01e01.2010.BDRip.MVO.Lostfilm.mkv
Format : Matroska
Format version : Version 2
File size : 343 MiB
Duration : 54mn 40s
Overall bit rate : 877 Kbps
Encoded date : UTC 2011-01-29 10:13:42
Writing application : mkvmerge v4.0.0 ('The Stars were mine') built on Jun 6 2010 16:18:42
Writing library : libebml v1.0.0 + libmatroska v1.0.0
Video #1
ID : 1
Format : AVC
Format/Info : Advanced Video Codec
Format profile : High@L3.1
Format settings, CABAC : Yes
Format settings, ReFrames : 14 frames
Codec ID : V_MPEG4/ISO/AVC
Duration : 54mn 40s
Bit rate : 747 Kbps
Width : 720 pixels
Height : 400 pixels
Display aspect ratio : 16:9
Frame rate mode : Constant
Frame rate : 23.976 fps
Color space : YUV
Chroma subsampling : 4:2:0
Bit depth : 8 bits
Scan type : Progressive
Bits/(Pixel*Frame) : 0.108
Stream size : 286 MiB (83%)
Title : BDRip.1080p.by.WoRG
Writing library : x264 core 104 r1713 c276662
Encoding settings : cabac=1 / ref=14 / deblock=1:0:0 / analyse=0x3:0x133 / me=umh / subme=9 / psy=1 / psy_rd=1.00:0.15 / mixed_ref=1 / me_range=24 / chroma_me=1 / trellis=2 / 8x8dct=1 / cqm=0 / deadzone=21,11 / fast_pskip=1 / chroma_qp_offset=-3 / threads=3 / sliced_threads=0 / nr=0 / decimate=1 / interlaced=0 / constrained_intra=0 / bframes=8 / b_pyramid=2 / b_adapt=2 / b_bias=0 / direct=3 / weightb=1 / open_gop=0 / weightp=2 / keyint=250 / keyint_min=23 / scenecut=40 / intra_refresh=0 / rc_lookahead=60 / rc=2pass / mbtree=1 / bitrate=747 / ratetol=1.0 / qcomp=0.60 / qpmin=10 / qpmax=51 / qpstep=4 / cplxblur=20.0 / qblur=0.5 / ip_ratio=1.40 / aq=1:1.00
Language : English
Default : No
Forced : No
Audio #2
ID : 2
Format : AC-3
Format/Info : Audio Coding 3
Mode extension : CM (complete main)
Format settings, Endianness : Big
Codec ID : A_AC3
Duration : 54mn 40s
Bit rate mode : Constant
Bit rate : 128 Kbps
Channel(s) : 2 channels
Channel positions : Front: L R
Sampling rate : 48.0 KHz
Bit depth : 16 bits
Compression mode : Lossy
Stream size : 50.0 MiB (15%)
Title : MVO.LostFilm
Language : Russian
Default : Yes
Forced : No
-

Скриншоты

Показать сообщения:    

Текущее время: 23-Сен 03:02

Часовой пояс: UTC - 1


Вы не можете начинать темы
Вы не можете отвечать на сообщения
Вы не можете редактировать свои сообщения
Вы не можете удалять свои сообщения
Вы не можете голосовать в опросах
Вы не можете прикреплять файлы к сообщениям
Вы не можете скачивать файлы

!ВНИМАНИЕ!
Сайт не предоставляет электронные версии произведений, а занимается лишь коллекционированием и каталогизацией ссылок, присылаемых и публикуемых на форуме нашими читателями. Если вы являетесь правообладателем какого-либо представленного материала и не желаете, чтобы ссылка на него находилась в нашем каталоге, свяжитесь с нами, и мы незамедлительно удалим ее. Файлы для обмена на трекере предоставлены пользователями сайта, и администрация не несет ответственности за их содержание. Просьба не заливать файлы, защищенные авторскими правами, а также файлы нелегального содержания!