Важное объявление!
У Нас Все раздачи мультитрекерные, при нуле пиров в релизах, можете смело вставать на закачку!
 
Автор Сообщение

HUNTER

Стаж:
4 года 7 месяцев
Сообщений:
61564

Репутация: 101

[+] [-]
Вне форума [Профиль] [ЛС]

Со мною вот что происходит-
Год выпуска: 2012
Страна: Россия
Жанр: мелодрама, комедия
Продолжительность: 01:12:53
Перевод: Оригинал-Режиссер: Виктор Шамиров
Сценарий: Виктор Шамиров, Гоша Куценко
Продюсер: Эдуард Илоян, Гоша Куценко, Андрей Новиков
Оператор: Семён Яковлев
Композитор: Микаэл Таривердиев
Художник: Анна Гаврилова-В ролях: Гоша Куценко (Артем), Виктор Шамиров (Валентин), Александра Петрова , Олеся Железняк (Настя), Александр Робак , Маргарита Шубина , Павел Сборщиков , Мария Порошина , Николай Чиндяйкин , Александр Синюков
-Описание: 31 декабря. Московские невозможные пробки. Спешка без результатов, помощь, от которой никому не становится легче. Разговоры о бесконечных мелочах, в которых проходит жизнь — а может, уже и прошла. Об отце, которому осталось всего ничего, и ничего не сделаешь. О планах пятнадцатилетней девочки на жизнь: можно стать онкологом, можно — дизайнером еды. О том, что было, и что теперь.-Сборы в России: $14 353
Зрители: Россия 2.4 тыс.
Премьера (мир): 6 декабря 2012
Премьера (РФ): 6 декабря 2012, «Другое кино», «All Media»-Рейтинг: -Качество: SATRip
Формат: AVI
Видео кодек: XviD
Аудио кодеk: AC3
Видео: 720x304 (2.37:1), 25.000 fps, XviD build 50, ~2782 kbps avg, 0.51 bit/pixel
Аудио: Аудио #1: 48.0 kHz, AC3 Dolby Digital, 2/0 (L,R) ch, ~192.00 kbps avg
-

МедиаИнфо

Код: copyText_writeLink('this.parentNode.parentNode.nextSibling.nextSibling'); General
Complete name : So_mnoju_vot_chto_proishodit.avi
Format : AVI
Format/Info : Audio Video Interleave
File size : 1.52 GiB
Duration : 1h 12mn
Overall bit rate : 2 984 Kbps
Writing application : VirtualDubMod 1.5.10.3 | www.virtualdub-fr.org || (build 2550/release)
Writing library : VirtualDubMod build 2550/release
Video
ID : 0
Format : MPEG-4 Visual
Format profile : Advanced Simple@L5
Format settings, BVOP : Yes
Format settings, QPel : No
Format settings, GMC : No warppoints
Format settings, Matrix : Default (MPEG)
Codec ID : XVID
Codec ID/Hint : XviD
Duration : 1h 12mn
Bit rate : 2 782 Kbps
Width : 720 pixels
Height : 304 pixels
Display aspect ratio : 2.35:1
Frame rate : 25.000 fps
Color space : YUV
Chroma subsampling : 4:2:0
Bit depth : 8 bits
Scan type : Progressive
Bits/(Pixel*Frame) : 0.508
Stream size : 1.42 GiB (93%)
Writing library : XviD 1.2.1 (UTC 2008-12-04)
Audio
ID : 1
Format : AC-3
Format/Info : Audio Coding 3
Mode extension : CM (complete main)
Codec ID : 2000
Duration : 1h 12mn
Bit rate mode : Constant
Bit rate : 192 Kbps
Channel(s) : 2 channels
Channel positions : Front: L R
Sampling rate : 48.0 KHz
Bit depth : 16 bits
Stream size : 100 MiB (6%)
Alignment : Split accross interleaves
Interleave, duration : 40 ms (1.00 video frame)
Interleave, preload duration : 500 ms
-
- -

_________________
Показать сообщения:    

Текущее время: Сегодня 16:12

Часовой пояс: GMT



Вы не можете начинать темы
Вы не можете отвечать на сообщения
Вы не можете редактировать свои сообщения
Вы не можете удалять свои сообщения
Вы не можете голосовать в опросах
Вы не можете прикреплять файлы к сообщениям
Вы не можете скачивать файлы
Наши партнеры: интернет магазин Ивановского трикотажа textilla.ru