Ивановский Торрент трекер
Яндекс.Погода
 

[Цитировать]
HUNTER

София Прекрасная: История принцессы / Sofia the First: Once Upon a Princess-
Страна: США
Жанр: мультфильм, мюзикл, фэнтези, семейный
Год выпуска: 2012
Продолжительность: 00:47:44
Перевод: Профессиональный (полное дублирование)
Субтитры: Есть-Режиссер: Джэми Митчелл / Jamie Mitchell-Описание: В одном далеком-предалеком королевстве рука об руку правят волшебство и веселье! Знакомьтесь - София Прекрасная, очаровательная маленькая принцесса, которой предстоит впервые выйти в свет.
После того, как мама Софии выходит замуж за короля, девочка становится принцессой. И вот уже маленькая София мчится в Академию по подготовке королевских особ, где строгие преподаватели научат ее всему, что нужно знать принцессе. Но сможет ли София научиться колдовать и подружится ли она со своей новой сводной сестрой? Ей помогут доброта, говорящие животные и советы особенной гостьи Академии - знаменитой Золушки.
-Рейтинг:
-Мировая премьера: 18 ноября 2012
Релиз на DVD: 21 мая 2013,«Уолт Дисней Компани СНГ»-Релиз: -Качество: WEB-DLRip
Формат: AVI
Видео: 720x400 (1.80:1), 23.976 fps, XviD build 65 ~1971 kbps avg, 0.28 bit/pixel
Аудио: 48 kHz, AC3 Dolby Digital, 2/0 (L,R) ch, ~192 kbps - Rus
Аудио 2: 48 kHz, AC3 Dolby Digital, 2/0 (L,R) ch, ~192 kbps - Eng (отдельным файлом)
Субтитры: Русские (Srt), Английские (Srt)-

MI

Format : AVIFormat/Info : Audio Video InterleaveFile size : 742 MiBDuration : 47mn 44sOverall bit rate : 2 173 KbpsWriting application : VirtualDubMod 1.5.10.3 | www.virtualdub-fr.org || (build 2550/release)Writing library : VirtualDubMod build 2550/release
VideoID : 0Format : MPEG-4 VisualFormat profile : Advanced Simple@L5Format settings, BVOP : 2Format settings, QPel : NoFormat settings, GMC : No warppointsFormat settings, Matrix : CustomCodec ID : XVIDCodec ID/Hint : XviDDuration : 47mn 44sBit rate : 1 972 KbpsWidth : 720 pixelsHeight : 400 pixelsDisplay aspect ratio : 16:9Frame rate : 23.976 fpsColor space : YUVChroma subsampling : 4:2:0Bit depth : 8 bitsScan type : ProgressiveCompression mode : LossyBits/(Pixel*Frame) : 0.286Stream size : 673 MiB (91%)Writing library : XviD 65
AudioID : 1Format : AC-3Format/Info : Audio Coding 3Mode extension : CM (complete main)Format settings, Endianness : BigCodec ID : 2000Duration : 47mn 44sBit rate mode : ConstantBit rate : 192 KbpsChannel count : 2 channelsChannel positions : Front: L RSampling rate : 48.0 KHzBit depth : 16 bitsCompression mode : LossyStream size : 65.6 MiB (9%)Alignment : Split accross interleavesInterleave, duration : 42 ms (1.00 video frame)Interleave, preload duration : 500 ms
0 человек читают эту тему: 0 пользователей, 0 скрытых пользователей, 0 гостей

Показать сообщения:    

Текущее время: 23-Авг 01:28

Часовой пояс: UTC - 1


Вы не можете начинать темы
Вы не можете отвечать на сообщения
Вы не можете редактировать свои сообщения
Вы не можете удалять свои сообщения
Вы не можете голосовать в опросах
Вы не можете прикреплять файлы к сообщениям
Вы не можете скачивать файлы

!ВНИМАНИЕ!
Сайт не предоставляет электронные версии произведений, а занимается лишь коллекционированием и каталогизацией ссылок, присылаемых и публикуемых на форуме нашими читателями. Если вы являетесь правообладателем какого-либо представленного материала и не желаете, чтобы ссылка на него находилась в нашем каталоге, свяжитесь с нами, и мы незамедлительно удалим ее. Файлы для обмена на трекере предоставлены пользователями сайта, и администрация не несет ответственности за их содержание. Просьба не заливать файлы, защищенные авторскими правами, а также файлы нелегального содержания!