Важное объявление!
У Нас Все раздачи мультитрекерные, при нуле пиров в релизах, можете смело вставать на закачку!
 
Автор Сообщение

HUNTER

Стаж:
4 года 7 месяцев
Сообщений:
61573

Репутация: 101

[+] [-]
Вне форума [Профиль] [ЛС]

Состояние исступления / State of Grace-
Страна: Великобритания, США
Студия: Cinehaus, Orion Pictures, Rank Organisation
Жанр: Боевик, триллер, драма
Год выпуска: 1990
Продолжительность: 02:14:07
Перевод 1: Профессиональный (дублированный) «Варус видео»
Перевод 2: Профессиональный (двухголосый закадровый) «НТВ+»
Перевод 3: Профессиональный (двухголосый закадровый) «ОРТ»
Перевод 4: Одноголосый закадровый Д. Есарев
Перевод 5: Авторский (одноголосый закадровый) А. Гаврилов
Перевод 6: Авторский (одноголосый закадровый) С. Королёв
Перевод 7: Авторский (одноголосый закадровый) М. Иванов
Перевод 8: Одноголосый закадровый Д. Штамп
Cубтитры: Русские, Английские
Оригинальная аудиодорожка: Английский
Режиссер: Фил Джоану / Phil Joanou
В ролях: Шон Пенн, Гари Олдман, Эд Харрис, Робин Райт, Джон Туртурро, Бёрджесс Мередит, Р.Д. Колл, Джо Витерелли, Джон Си Райли, Дирдри О’Коннелл.
Описание: Терри вырос в Адской кухне, небольшом ирландском квартале в западной части Манхэттена. Вернувшись в Нью-Йорк после десятилетнего отсутствия, он встречает своего лучшего друга детства Джеки, чей брат Фрэнки стал боссом ирландской мафии, а сестра Кэтлин, первая любовь Терри, превратилась в очаровательную женщину.-Рейтинг
[img]https://rating.kinopoisk.ru/1664.gif[/img]-Сэмпл
Тип релиза: BDRip 720p
Контейнер: MKV
Исходник: State.of.Grace.1990.BD50.Twilight.Time.BaggerInc
Видео: 1280x690 (1,85:1), 23.976 fps, x264, ~12000 kbps | Encode by SbR
Аудио 1: Russian: 48 kHz, AC3, 2/0 (L,R) ch, ~192 kbps | Дубляж, «Варус видео»
Аудио 2: Russian: 48 kHz, AC3, 2/0 (L,R) ch, ~192 kbps | Двухголосый закадровый, «НТВ+»
Аудио 3: Russian: 48 kHz, AC3, 2/0 (L,R) ch, ~192 kbps | Двухголосый закадровый, «ОРТ»
Аудио 4: Russian: 48 kHz, AC3, 3/2 (L,C,R,l,r) + LFE ch, ~640 kbps | Одноголосый закадровый, Д. Есарев
Аудио 5: Russian: 48 kHz, AC3, 3/2 (L,C,R,l,r) + LFE ch, ~640 kbps | Одноголосый закадровый, А. Гаврилов
Аудио 6: Russian: 48 kHz, AC3, 3/2 (L,C,R,l,r) + LFE ch, ~640 kbps | Одноголосый закадровый, С. Королёв
Аудио 7: Russian: 48 kHz, AC3, 2/0 (L,R) ch, ~192 kbps | Одноголосый закадровый, М. Иванов
Аудио 8: Russian: 48 kHz, AC3, 2/0 (L,R) ch, ~192 kbps | Одноголосый закадровый, Д. Штамп
Аудио 9: English: 48 kHz, AC3, 3/2 (L,C,R,l,r) + LFE ch, ~640 kbps
Аудио 9: English: 48 kHz, AAC, 2/0 (L,R) ch, ~62 kbps | Commentary with Director Phil Joanou and Film Historian Nick Redman
Субтитры: Русские (Д.Штамп), Английские (Full, SDH)
Формат субтитров: softsub (SRT)

Дополнительно

За исходный ремукс спасибо форуму HD AVO.
Спасибо delia (HDClub).
За дубляж спасибо Fikaloid.
Перевод Д. Есарева, доступен благодаря ресурсу "Переулок Переводмана". Заказ перевода и работа со звуком mihaildns.
Внимание! В переводах Д. Есарева и Д. Штампа присутствует ненормативная лексика!

MediaInfo

Общее
Unique ID : 206921322632933934890972876806082861219 (0x9BAB98DE1BA0F6288386C1B2273118A3)
Complete name : E:\video_rutracker\State.of.Grace.1990.720p.BluRay.8xRus.Eng.x264.mkv
Format : Matroska
Format version : Version 2
File size : 14,6 Гбайт
Duration : 2 ч. 14 м.
Overall bit rate : 15,6 Мбит/сек
Movie name : State of Grace 1990 | RuTracker | igrok2012
Encoded date : UTC 2016-10-06 16:14:31
Writing application : mkvmerge v8.3.0 ('Over the Horizon') 64bit
Writing library : libebml v1.3.1 + libmatroska v1.4.2
Cover : Yes
Attachments : cover.jpg
Видео
ID : 1
Format : AVC
Format/Info : Advanced Video Codec
Format profile : High@L4.1
Format settings, CABAC : Да
Format settings, ReFrames : 9 кадров
Codec ID : V_MPEG4/ISO/AVC
Duration : 2 ч. 14 м.
Nominal bit rate : 12,0 Мбит/сек
Width : 1280 пикселей
Height : 690 пикселей
Display aspect ratio : 1,85:1
Frame rate mode : Постоянный
Frame rate : 23,976 (23976/1000) кадра/сек
Color space : YUV
Chroma subsampling : 4:2:0
Bit depth : 8 бит
Scan type : Прогрессивная
Bits/(Pixel*Frame) : 0.567
Title : Encode by SbR
Writing library : x264 core 148 r2705+54 9f484c1 t_mod_Custom [8-bit@all X86_64]
Encoding settings : cabac=1 / ref=9 / deblock=1:-3:-3 / analyse=0x3:0x133 / me=umh / subme=10 / psy=1 / fade_compensate=0.00 / psy_rd=1.00:0.00 / mixed_ref=1 / me_range=24 / chroma_me=1 / trellis=2 / 8x8dct=1 / cqm=0 / deadzone=21,11 / fast_pskip=0 / chroma_qp_offset=-2 / threads=6 / lookahead_threads=1 / sliced_threads=0 / nr=0 / decimate=1 / interlaced=0 / bluray_compat=0 / constrained_intra=0 / fgo=0 / bframes=8 / b_pyramid=2 / b_adapt=2 / b_bias=0 / direct=3 / weightb=1 / open_gop=0 / weightp=2 / keyint=250 / keyint_min=23 / scenecut=40 / intra_refresh=0 / rc=2pass / mbtree=0 / bitrate=12000 / ratetol=1.0 / qcomp=0.70 / qpmin=0:0:0 / qpmax=69:69:69 / qpstep=4 / cplxblur=20.0 / qblur=0.5 / ip_ratio=1.40 / pb_ratio=1.30 / aq=1:0.70 / aq-sensitivity=10.00 / aq-factor=1.00:1.00:1.00 / aq2=1:0.60 / aq2-sensitivity=15.00 / aq2-factor=1.00:1.00:1.00 / aq3=1:[0.50:0.50]:[0.50:0.50]:[0.50:0.50]:[0.50:0.50] / aq3-sensitivity=10.00 / aq3-factor=[1.00:1.00]:[1.00:1.00]:[1.00:1.00] / aq3-boundary=192:64:24
Language : English
Default : Да
Forced : Нет
Color range : Limited
Matrix coefficients : BT.709
Аудио #1
ID : 2
Format : AC-3
Format/Info : Audio Coding 3
Mode extension : CM (complete main)
Format settings, Endianness : Big
Codec ID : A_AC3
Duration : 2 ч. 14 м.
Bit rate mode : Постоянный
Bit rate : 192 Кбит/сек
Channel(s) : 2 канала
Channel positions : Front: L R
Sampling rate : 48,0 КГц
Frame rate : 31,250 кадров/сек (1536 spf)
Compression mode : С потерями
Stream size : 184 Мбайт (1%)
Title : Дубляж, «Варус видео»
Language : Russian
Default : Да
Forced : Нет
Аудио #2
ID : 3
Format : AC-3
Format/Info : Audio Coding 3
Mode extension : CM (complete main)
Format settings, Endianness : Big
Codec ID : A_AC3
Duration : 2 ч. 14 м.
Bit rate mode : Постоянный
Bit rate : 192 Кбит/сек
Channel(s) : 2 канала
Channel positions : Front: L R
Sampling rate : 48,0 КГц
Frame rate : 31,250 кадров/сек (1536 spf)
Compression mode : С потерями
Stream size : 184 Мбайт (1%)
Title : Двухголосый закадровый, «НТВ+»
Language : Russian
Default : Нет
Forced : Нет
Аудио #3
ID : 4
Format : AC-3
Format/Info : Audio Coding 3
Mode extension : CM (complete main)
Format settings, Endianness : Big
Codec ID : A_AC3
Duration : 2 ч. 14 м.
Bit rate mode : Постоянный
Bit rate : 192 Кбит/сек
Channel(s) : 2 канала
Channel positions : Front: L R
Sampling rate : 48,0 КГц
Frame rate : 31,250 кадров/сек (1536 spf)
Compression mode : С потерями
Stream size : 184 Мбайт (1%)
Title : Двухголосый закадровый, «ОРТ»
Language : Russian
Default : Нет
Forced : Нет
Аудио #4
ID : 5
Format : AC-3
Format/Info : Audio Coding 3
Mode extension : CM (complete main)
Format settings, Endianness : Big
Codec ID : A_AC3
Duration : 2 ч. 14 м.
Bit rate mode : Постоянный
Bit rate : 640 Кбит/сек
Channel(s) : 6 каналов
Channel positions : Front: L C R, Side: L R, LFE
Sampling rate : 48,0 КГц
Frame rate : 31,250 кадров/сек (1536 spf)
Compression mode : С потерями
Stream size : 614 Мбайт (4%)
Title : Одноголосый закадровый, Д.Есарев
Language : Russian
Default : Нет
Forced : Нет
Аудио #5
ID : 6
Format : AC-3
Format/Info : Audio Coding 3
Mode extension : CM (complete main)
Format settings, Endianness : Big
Codec ID : A_AC3
Duration : 2 ч. 14 м.
Bit rate mode : Постоянный
Bit rate : 640 Кбит/сек
Channel(s) : 6 каналов
Channel positions : Front: L C R, Side: L R, LFE
Sampling rate : 48,0 КГц
Frame rate : 31,250 кадров/сек (1536 spf)
Compression mode : С потерями
Stream size : 614 Мбайт (4%)
Title : Одноголосый закадровый, А.Гаврилов
Language : Russian
Default : Нет
Forced : Нет
Аудио #6
ID : 7
Format : AC-3
Format/Info : Audio Coding 3
Mode extension : CM (complete main)
Format settings, Endianness : Big
Codec ID : A_AC3
Duration : 2 ч. 14 м.
Bit rate mode : Постоянный
Bit rate : 640 Кбит/сек
Channel(s) : 6 каналов
Channel positions : Front: L C R, Side: L R, LFE
Sampling rate : 48,0 КГц
Frame rate : 31,250 кадров/сек (1536 spf)
Compression mode : С потерями
Stream size : 614 Мбайт (4%)
Title : Одноголосый закадровый, С.Королёв
Language : Russian
Default : Нет
Forced : Нет
Аудио #7
ID : 8
Format : AC-3
Format/Info : Audio Coding 3
Mode extension : CM (complete main)
Format settings, Endianness : Big
Codec ID : A_AC3
Duration : 2 ч. 14 м.
Bit rate mode : Постоянный
Bit rate : 192 Кбит/сек
Channel(s) : 2 канала
Channel positions : Front: L R
Sampling rate : 48,0 КГц
Frame rate : 31,250 кадров/сек (1536 spf)
Compression mode : С потерями
Stream size : 184 Мбайт (1%)
Title : Одноголосый закадровый, М.Иванов
Language : Russian
Default : Нет
Forced : Нет
Аудио #8
ID : 9
Format : AC-3
Format/Info : Audio Coding 3
Mode extension : CM (complete main)
Format settings, Endianness : Big
Codec ID : A_AC3
Duration : 2 ч. 14 м.
Bit rate mode : Постоянный
Bit rate : 192 Кбит/сек
Channel(s) : 2 канала
Channel positions : Front: L R
Sampling rate : 48,0 КГц
Frame rate : 31,250 кадров/сек (1536 spf)
Compression mode : С потерями
Stream size : 184 Мбайт (1%)
Title : Одноголосый закадровый, Д.Штамп
Language : Russian
Default : Нет
Forced : Нет
Аудио #9
ID : 10
Format : AC-3
Format/Info : Audio Coding 3
Mode extension : CM (complete main)
Format settings, Endianness : Big
Codec ID : A_AC3
Duration : 2 ч. 14 м.
Bit rate mode : Постоянный
Bit rate : 640 Кбит/сек
Channel(s) : 6 каналов
Channel positions : Front: L C R, Side: L R, LFE
Sampling rate : 48,0 КГц
Frame rate : 31,250 кадров/сек (1536 spf)
Compression mode : С потерями
Stream size : 614 Мбайт (4%)
Language : English
Default : Нет
Forced : Нет
Аудио #10
ID : 11
Format : AAC
Format/Info : Advanced Audio Codec
Format profile : LC
Codec ID : A_AAC
Duration : 2 ч. 14 м.
Channel(s) : 2 канала
Channel positions : Front: L R
Sampling rate : 48,0 КГц
Frame rate : 46,875 кадров/сек (1024 spf)
Compression mode : С потерями
Delay relative to video : 9 мс.
Title : Commentary with Director Phil Joanou and Film Historian Nick Redman
Language : English
Default : Нет
Forced : Нет
Текст #1
ID : 12
Format : UTF-8
Codec ID : S_TEXT/UTF8
Codec ID/Info : UTF-8 Plain Text
Title : Д.Штамп
Language : Russian
Default : Нет
Forced : Нет
Текст #2
ID : 13
Format : UTF-8
Codec ID : S_TEXT/UTF8
Codec ID/Info : UTF-8 Plain Text
Language : English
Default : Нет
Forced : Нет
Текст #3
ID : 14
Format : UTF-8
Codec ID : S_TEXT/UTF8
Codec ID/Info : UTF-8 Plain Text
Title : SDH
Language : English
Default : Нет
Forced : Нет
Меню
00:00:00.000 : en:00:00:00.000
00:04:58.548 : en:00:04:58.548
00:09:27.108 : en:00:09:27.108
00:17:02.479 : en:00:17:02.479
00:23:01.546 : en:00:23:01.546
00:27:26.061 : en:00:27:26.061
00:32:50.385 : en:00:32:50.385
00:39:28.365 : en:00:39:28.365
00:44:00.554 : en:00:44:00.554
00:50:24.146 : en:00:50:24.146
00:55:55.977 : en:00:55:55.977
01:01:52.708 : en:01:01:52.708
01:06:04.835 : en:01:06:04.835
01:12:28.886 : en:01:12:28.886
01:19:07.784 : en:01:19:07.784
01:24:56.883 : en:01:24:56.883
01:29:29.947 : en:01:29:29.947
01:34:22.031 : en:01:34:22.031
01:41:41.553 : en:01:41:41.553
01:45:36.079 : en:01:45:36.079
01:51:29.099 : en:01:51:29.099
01:55:26.836 : en:01:55:26.836
02:02:16.954 : en:02:02:16.954
02:08:49.721 : en:02:08:49.721

Скриншоты

Скриншоты сравнения

SbR | [url=viewtopic.php?t=3436273]aAF[/url]


_________________
Показать сообщения:    

Текущее время: Сегодня 05:48

Часовой пояс: GMT



Вы не можете начинать темы
Вы не можете отвечать на сообщения
Вы не можете редактировать свои сообщения
Вы не можете удалять свои сообщения
Вы не можете голосовать в опросах
Вы не можете прикреплять файлы к сообщениям
Вы не можете скачивать файлы
Наши партнеры: интернет магазин Ивановского трикотажа textilla.ru