Состояние исступления / State of Grace (Фил Джоану / Phil Joanou) [1990, Великобритания, США, боевик, триллер, драма, BDRip 1080p] Dub + 2x DVO (НТВ+, ОРТ) + 3x AVO (Гаврилов, Королев, Иванов) + VO (Штамп) + Ukr + Sub Rus, Eng + Original Eng :: Ивановский Торрент трекер
Важное объявление!
У Нас Все раздачи мультитрекерные, при нуле пиров в релизах, можете смело вставать на закачку!
 
Автор Сообщение

HUNTER

Стаж:
4 года 11 месяцев
Сообщений:
66045

Репутация: 101

[+] [-]
Вне форума [Профиль] [ЛС]

Состояние исступления / State of Grace
Страна: Великобритания, США
Студия: Cinehaus, Orion Pictures, Rank Organisation
Жанр: боевик, триллер, драма
Год выпуска: 1990
Продолжительность: 02:14:07
Перевод 1: Профессиональный (дублированный) Варус видео
Перевод 2: Профессиональный (двухголосый закадровый) НТВ+
Перевод 3: Профессиональный (двухголосый закадровый) ОРТ
Перевод 4: Авторский (одноголосый закадровый) А.Гаврилов
Перевод 5: Авторский (одноголосый закадровый) С.Королёв
Перевод 6: Авторский (одноголосый закадровый) М.Иванов
Перевод 7: Одноголосый закадровый Д.Штамп (ненормативная лексика)
Cубтитры: русские (Д.Штамп), английские, английские (SDH)
Оригинальная аудиодорожка: английский
Режиссер: Фил Джоану / Phil Joanou
В ролях: Шон Пенн, Гари Олдман, Эд Харрис, Робин Райт, Джон Туртурро, Бёрджесс Мередит, Р.Д. Колл, Джо Витерелли, Джон Си Райли, Дирдри О’Коннелл
Описание: Терри вырос в Адской кухне, небольшом ирландском квартале в западной части Манхэттена. Вернувшись в Нью-Йорк после десятилетнего отсутствия, он встречает своего лучшего друга детства Джеки, чей брат Фрэнки стал боссом ирландской мафии, а сестра Кэтлин, первая любовь Терри, превратилась в очаровательную женщину.-[img]https://rating.kinopoisk.ru/1664.gif[/img] -Сэмпл: https://yadi.sk/i/jBHyDwL6v2xwF
Тип релиза: BDRip 1080p [SbR]
Контейнер: MKV
Видео: h.264, 1916x1036, 23.976 fps, 17700 kbps
Аудио #1: Russian: AC3 2.0, 48 kHz, 192 kbps avg |Дубляж, Варус видео|
Аудио #2: Russian: AC3 2.0, 48 kHz, 192 kbps avg |Двухголосый закадровый, НТВ+|
Аудио #3: Russian: AC3 2.0, 48 kHz, 192 kbps avg |Двухголосый закадровый, ОРТ|
Аудио #4: Russian: DTS 5.1, 48 kHz/24-bit, 1536 kbps avg |Одноголосый закадровый, А.Гаврилов|
Аудио #5: Russian: DTS 5.1, 48 kHz/24-bit, 1536 kbps avg |Одноголосый закадровый, С.Королёв|
Аудио #6: Russian: AC3 2.0, 48 kHz, 192 kbps avg |Одноголосый закадровый, М.Иванов|
Аудио #7: Russian: AC3 2.0, 48 kHz, 192 kbps avg |Одноголосый закадровый, Д.Штамп|-> ненормативная лексика
Аудио #8: Ukrainian: AC3 2.0, 48 kHz, 192 kbps avg |Многоголосый закадровый, Інтер|
Аудио #9: English: DTS 5.1, 48 kHz/24-bit, 1536 kbps avg |Оригинал|
Аудио #10: English: AAC 2.0, 48 kHz, 62 kbps avg |Commentary with Director Phil Joanou and Film Historian Nick Redman|
Формат субтитров: softsub (SRT)

MediaInfo

Complete name : D:\Принятые\State.of.Grace.1990.1080p.BluRay.7xRus.Ukr.Eng.HDCLUB-SbR.mkv
Format : Matroska
Format version : Version 4 / Version 2
File size : 22.0 GiB
Duration : 2h 14mn
Overall bit rate : 23.4 Mbps
Encoded date : UTC 2016-09-10 21:15:32
Writing application : mkvmerge v8.3.0 ('Over the Horizon') 64bit
Writing library : libebml v1.3.1 + libmatroska v1.4.2
Cover : Yes
Attachments : cover.jpg
Video
ID : 1
Format : AVC
Format/Info : Advanced Video Codec
Format profile : High@L4.1
Format settings, CABAC : Yes
Format settings, ReFrames : 4 frames
Codec ID : V_MPEG4/ISO/AVC
Duration : 2h 14mn
Bit rate : 17.7 Mbps
Width : 1 916 pixels
Height : 1 036 pixels
Display aspect ratio : 1.85:1
Frame rate mode : Constant
Frame rate : 23.976 (24000/1001) fps
Color space : YUV
Chroma subsampling : 4:2:0
Bit depth : 8 bits
Scan type : Progressive
Bits/(Pixel*Frame) : 0.372
Stream size : 16.6 GiB (75%)
Writing library : x264 core 148 r2705+54 9f484c1 t_mod_Custom [8-bit@all X86_64]
Encoding settings : cabac=1 / ref=4 / deblock=1:-3:-3 / analyse=0x3:0x133 / me=umh / subme=10 / psy=1 / fade_compensate=0.00 / psy_rd=1.00:0.00 / mixed_ref=1 / me_range=24 / chroma_me=1 / trellis=2 / 8x8dct=1 / cqm=0 / deadzone=21,11 / fast_pskip=1 / chroma_qp_offset=-2 / threads=6 / lookahead_threads=1 / sliced_threads=0 / nr=0 / decimate=1 / interlaced=0 / bluray_compat=0 / constrained_intra=0 / fgo=0 / bframes=8 / b_pyramid=2 / b_adapt=2 / b_bias=0 / direct=3 / weightb=1 / open_gop=0 / weightp=2 / keyint=250 / keyint_min=23 / scenecut=40 / intra_refresh=0 / rc=2pass / mbtree=0 / bitrate=17700 / ratetol=1.0 / qcomp=0.70 / qpmin=0:0:0 / qpmax=69:69:69 / qpstep=4 / cplxblur=20.0 / qblur=0.5 / ip_ratio=1.40 / pb_ratio=1.30 / aq=1:0.65 / aq-sensitivity=10.00 / aq-factor=1.00:1.00:1.00 / aq2=0 / aq3=0
Language : English
Default : Yes
Forced : No
Color range : Limited
Matrix coefficients : BT.709
Audio #1
ID : 2
Format : AC-3
Format/Info : Audio Coding 3
Mode extension : CM (complete main)
Format settings, Endianness : Big
Codec ID : A_AC3
Duration : 2h 14mn
Bit rate mode : Constant
Bit rate : 192 Kbps
Channel(s) : 2 channels
Channel positions : Front: L R
Sampling rate : 48.0 KHz
Frame rate : 31.250 fps (1536 spf)
Compression mode : Lossy
Stream size : 184 MiB (1%)
Title : Дубляж, Варус видео
Language : Russian
Default : Yes
Forced : No
Audio #2
ID : 3
Format : AC-3
Format/Info : Audio Coding 3
Mode extension : CM (complete main)
Format settings, Endianness : Big
Codec ID : A_AC3
Duration : 2h 14mn
Bit rate mode : Constant
Bit rate : 192 Kbps
Channel(s) : 2 channels
Channel positions : Front: L R
Sampling rate : 48.0 KHz
Frame rate : 31.250 fps (1536 spf)
Compression mode : Lossy
Stream size : 184 MiB (1%)
Title : Двухголосый закадровый, НТВ+
Language : Russian
Default : No
Forced : No
Audio #3
ID : 4
Format : AC-3
Format/Info : Audio Coding 3
Mode extension : CM (complete main)
Format settings, Endianness : Big
Codec ID : A_AC3
Duration : 2h 14mn
Bit rate mode : Constant
Bit rate : 192 Kbps
Channel(s) : 2 channels
Channel positions : Front: L R
Sampling rate : 48.0 KHz
Frame rate : 31.250 fps (1536 spf)
Compression mode : Lossy
Stream size : 184 MiB (1%)
Title : Двухголосый закадровый, ОРТ
Language : Russian
Default : No
Forced : No
Audio #4
ID : 5
Format : DTS
Format/Info : Digital Theater Systems
Mode : 16
Format settings, Endianness : Big
Codec ID : A_DTS
Duration : 2h 14mn
Bit rate mode : Constant
Bit rate : 1 509 Kbps
Channel(s) : 6 channels
Channel positions : Front: L C R, Side: L R, LFE
Sampling rate : 48.0 KHz
Frame rate : 93.750 fps (512 spf)
Bit depth : 24 bits
Compression mode : Lossy
Stream size : 1.41 GiB (6%)
Title : Одноголосый закадровый, А.Гаврилов
Language : Russian
Default : No
Forced : No
Audio #5
ID : 6
Format : DTS
Format/Info : Digital Theater Systems
Mode : 16
Format settings, Endianness : Big
Codec ID : A_DTS
Duration : 2h 14mn
Bit rate mode : Constant
Bit rate : 1 509 Kbps
Channel(s) : 6 channels
Channel positions : Front: L C R, Side: L R, LFE
Sampling rate : 48.0 KHz
Frame rate : 93.750 fps (512 spf)
Bit depth : 24 bits
Compression mode : Lossy
Stream size : 1.41 GiB (6%)
Title : Одноголосый закадровый, С.Королёв
Language : Russian
Default : No
Forced : No
Audio #6
ID : 7
Format : AC-3
Format/Info : Audio Coding 3
Mode extension : CM (complete main)
Format settings, Endianness : Big
Codec ID : A_AC3
Duration : 2h 14mn
Bit rate mode : Constant
Bit rate : 192 Kbps
Channel(s) : 2 channels
Channel positions : Front: L R
Sampling rate : 48.0 KHz
Frame rate : 31.250 fps (1536 spf)
Compression mode : Lossy
Stream size : 184 MiB (1%)
Title : Одноголосый закадровый, М.Иванов
Language : Russian
Default : No
Forced : No
Audio #7
ID : 8
Format : AC-3
Format/Info : Audio Coding 3
Mode extension : CM (complete main)
Format settings, Endianness : Big
Codec ID : A_AC3
Duration : 2h 14mn
Bit rate mode : Constant
Bit rate : 192 Kbps
Channel(s) : 2 channels
Channel positions : Front: L R
Sampling rate : 48.0 KHz
Frame rate : 31.250 fps (1536 spf)
Compression mode : Lossy
Stream size : 184 MiB (1%)
Title : Одноголосый закадровый, Д.Штамп
Language : Russian
Default : No
Forced : No
Audio #8
ID : 9
Format : AC-3
Format/Info : Audio Coding 3
Mode extension : CM (complete main)
Format settings, Endianness : Big
Codec ID : A_AC3
Duration : 2h 14mn
Bit rate mode : Constant
Bit rate : 192 Kbps
Channel(s) : 2 channels
Channel positions : Front: L R
Sampling rate : 48.0 KHz
Frame rate : 31.250 fps (1536 spf)
Compression mode : Lossy
Stream size : 184 MiB (1%)
Title : Многоголосый закадровый, Интер
Language : Ukrainian
Default : No
Forced : No
Audio #9
ID : 10
Format : DTS
Format/Info : Digital Theater Systems
Mode : 16
Format settings, Endianness : Big
Codec ID : A_DTS
Duration : 2h 14mn
Bit rate mode : Constant
Bit rate : 1 509 Kbps
Channel(s) : 6 channels
Channel positions : Front: L C R, Side: L R, LFE
Sampling rate : 48.0 KHz
Frame rate : 93.750 fps (512 spf)
Bit depth : 24 bits
Compression mode : Lossy
Stream size : 1.41 GiB (6%)
Language : English
Default : No
Forced : No
Audio #10
ID : 11
Format : AAC
Format/Info : Advanced Audio Codec
Format profile : LC
Codec ID : A_AAC
Duration : 2h 14mn
Bit rate : 61.9 Kbps
Channel(s) : 2 channels
Channel positions : Front: L R
Sampling rate : 48.0 KHz
Frame rate : 46.875 fps (1024 spf)
Compression mode : Lossy
Delay relative to video : 9ms
Stream size : 59.4 MiB (0%)
Title : Commentary with Director Phil Joanou and Film Historian Nick Redman
Language : English
Default : No
Forced : No
Text #1
ID : 12
Format : UTF-8
Codec ID : S_TEXT/UTF8
Codec ID/Info : UTF-8 Plain Text
Duration : 1h 58mn
Bit rate : 97 bps
Count of elements : 1180
Stream size : 84.5 KiB (0%)
Title : Д.Штамп
Language : Russian
Default : No
Forced : No
Text #2
ID : 13
Format : UTF-8
Codec ID : S_TEXT/UTF8
Codec ID/Info : UTF-8 Plain Text
Duration : 1h 58mn
Bit rate : 62 bps
Count of elements : 1700
Stream size : 54.0 KiB (0%)
Language : English
Default : No
Forced : No
Text #3
ID : 14
Format : UTF-8
Codec ID : S_TEXT/UTF8
Codec ID/Info : UTF-8 Plain Text
Duration : 2h 0mn
Bit rate : 64 bps
Count of elements : 1843
Stream size : 56.7 KiB (0%)
Title : SDH
Language : English
Default : No
Forced : No
Menu
00:00:00.000 : en:00:00:00.000
00:04:58.548 : en:00:04:58.548
00:09:27.108 : en:00:09:27.108
00:17:02.479 : en:00:17:02.479
00:23:01.546 : en:00:23:01.546
00:27:26.061 : en:00:27:26.061
00:32:50.385 : en:00:32:50.385
00:39:28.365 : en:00:39:28.365
00:44:00.554 : en:00:44:00.554
00:50:24.146 : en:00:50:24.146
00:55:55.977 : en:00:55:55.977
01:01:52.708 : en:01:01:52.708
01:06:04.835 : en:01:06:04.835
01:12:28.886 : en:01:12:28.886
01:19:07.784 : en:01:19:07.784
01:24:56.883 : en:01:24:56.883
01:29:29.947 : en:01:29:29.947
01:34:22.031 : en:01:34:22.031
01:41:41.553 : en:01:41:41.553
01:45:36.079 : en:01:45:36.079
01:51:29.099 : en:01:51:29.099
01:55:26.836 : en:01:55:26.836
02:02:16.954 : en:02:02:16.954
02:08:49.721 : en:02:08:49.721

Source vs Encode





Скриншоты


_________________
Показать сообщения:    

Текущее время: Сегодня 17:36

Часовой пояс: GMT



Вы не можете начинать темы
Вы не можете отвечать на сообщения
Вы не можете редактировать свои сообщения
Вы не можете удалять свои сообщения
Вы не можете голосовать в опросах
Вы не можете прикреплять файлы к сообщениям
Вы не можете скачивать файлы