Соломон и царица Савская / Соломон и Шеба / Solomon and Sheba (Кинг Видор / King Vidor) [1959, США, драма, исторический, BDRip 720p] DVO + MVO + Sub Rus, Eng + Original Eng :: Ивановский Торрент трекер
Важное объявление!
У Нас Все раздачи мультитрекерные, при нуле пиров в релизах, можете смело вставать на закачку!
Статистика раздачи
Размер:     |    Зарегистрирован:     |    Скачан:     |   
Нет
 
     
 
 
Автор Сообщение

HUNTER

Стаж:
4 года 11 месяцев
Сообщений:
66088

Репутация: 101

[+] [-]
Вне форума [Профиль] [ЛС]

Соломон и царица Савская / Соломон и Шеба / Solomon and Sheba
Страна: США
Жанр: драма, исторический
Год выпуска: 1959
Продолжительность: 02:22:05-Перевод 1: Профессиональный (двухголосый, закадровый) SomeWax
Перевод 2: Профессиональный (многоголосый закадровый) 5-й канал СПБ
Cубтитры: русские, английские
Оригинальная аудиодорожка: английский-Режиссер: Кинг Видор / King Vidor-В ролях: Юл Бриннер, Джина Лоллобриджида, Джордж Сандерс, Мариса Паван, Дэвид Фаррар, Джон Кроуфорд, Финлэй Карри....-Описание: Этот библейский эпос, поставленный режиссером Кингом Вайдером является кинематографическим осмыслением плотских грехов и языческих богопреклонений. Картина, снятая в Испании, запечатлела подвиги незабвенных персонажей. Юл Бриннер олицетворяет здесь сильного и идеалистического Соломона. А чувственная Джина Лоллобриджида — великолепна в роли величественной и соблазнительной Царицы.-Сэмпл: Скачать-Тип релиза: BDRip 720p
Контейнер: MKV-Видео: 1280x544 ( 2.35:1); 6317 kbps; 23.976 fps; 0.374 bpp
Аудио 1: Russian; AC3; 48.0 KHz; 2ch; 192 Kbps DVO
Аудио 2: Russian; AC3; 48.0 KHz; 2ch; 192 Kbps MVO
Аудио 3: English; FLAC; 48.0 KHz; 2ch; ~444 Kbps
Аудио 4: English; AAC; 48.0 KHz; 2ch; ~128 Kbps Isolated Music and Effects Track
Формат субтитров: softsub (SRT)

MediaInfo

Format : Matroska
Format version : Version 4 / Version 2
File size : 7.32 GiB
Duration : 2h 22mn
Overall bit rate mode : Variable
Overall bit rate : 7 373 Kbps
Encoded date : UTC 2015-04-10 16:39:18
Writing application : mkvmerge v7.2.0 ('On Every Street') 64bit built on Sep 13 2014 15:52:10
Writing library : libebml v1.3.0 + libmatroska v1.4.1
Attachements : poster.jpg
_STATISTICS_WRITING_APP : mkvmerge v7.2.0 ('On Every Street') 64bit built on Sep 13 2014 15:52:10
_STATISTICS_WRITING_DATE_UTC : 2015-04-10 16:39:18
_STATISTICS_TAGS : BPS DURATION NUMBER_OF_FRAMES NUMBER_OF_BYTES
DURATION : 02:18:13.201000000
NUMBER_OF_FRAMES : 1357
NUMBER_OF_BYTES : 55191
Video
ID : 1
Format : AVC
Format/Info : Advanced Video Codec
Format profile : High@L4.1
Format settings, CABAC : Yes
Format settings, ReFrames : 12 frames
Codec ID : V_MPEG4/ISO/AVC
Duration : 2h 22mn
Width : 1 280 pixels
Height : 544 pixels
Display aspect ratio : 2.35:1
Frame rate mode : Constant
Frame rate : 23.976 fps
Color space : YUV
Chroma subsampling : 4:2:0
Bit depth : 8 bits
Scan type : Progressive
Title : ENCODE CRiME For HDBiTS
Writing library : x264 core 146 r2538 121396c
Encoding settings : cabac=1 / ref=12 / deblock=1:-3:-3 / analyse=0x3:0x133 / me=umh / subme=10 / psy=1 / psy_rd=1.07:0.05 / mixed_ref=1 / me_range=32 / chroma_me=1 / trellis=2 / 8x8dct=1 / cqm=0 / deadzone=21,11 / fast_pskip=0 / chroma_qp_offset=-5 / threads=6 / lookahead_threads=1 / sliced_threads=0 / nr=0 / decimate=1 / interlaced=0 / bluray_compat=0 / constrained_intra=0 / bframes=12 / b_pyramid=2 / b_adapt=2 / b_bias=0 / direct=3 / weightb=1 / open_gop=0 / weightp=2 / keyint=230 / keyint_min=22 / scenecut=40 / intra_refresh=0 / rc_lookahead=60 / rc=crf / mbtree=0 / crf=19.9 / qcomp=0.62 / qpmin=0 / qpmax=69 / qpstep=4 / vbv_maxrate=62500 / vbv_bufsize=78125 / crf_max=0.0 / nal_hrd=none / filler=0 / ip_ratio=1.30 / pb_ratio=1.20 / aq=1:0.70
Language : English
Default : Yes
Forced : No
Audio #1
ID : 2
Format : AC-3
Format/Info : Audio Coding 3
Mode extension : CM (complete main)
Format settings, Endianness : Big
Codec ID : A_AC3
Duration : 2h 22mn
Bit rate mode : Constant
Bit rate : 192 Kbps
Channel(s) : 2 channels
Channel positions : Front: L R
Sampling rate : 48.0 KHz
Bit depth : 16 bits
Compression mode : Lossy
Stream size : 195 MiB (3%)
Title : DVO SomeWax
Language : Russian
Default : Yes
Forced : No
Audio #2
ID : 3
Format : AC-3
Format/Info : Audio Coding 3
Mode extension : CM (complete main)
Format settings, Endianness : Big
Codec ID : A_AC3
Duration : 2h 22mn
Bit rate mode : Constant
Bit rate : 192 Kbps
Channel(s) : 2 channels
Channel positions : Front: L R
Sampling rate : 48.0 KHz
Bit depth : 16 bits
Compression mode : Lossy
Stream size : 195 MiB (3%)
Title : MVO 5-й канал СПБ
Language : Russian
Default : No
Forced : No
Audio #3
ID : 4
Format : FLAC
Format/Info : Free Lossless Audio Codec
Codec ID : A_FLAC
Duration : 2h 22mn
Bit rate mode : Variable
Channel(s) : 2 channels
Sampling rate : 48.0 KHz
Bit depth : 16 bits
Writing library : libFLAC 1.3.0 (UTC 2013-05-26)
Language : English
Default : No
Forced : No
Audio #4
ID : 5
Format : AAC
Format/Info : Advanced Audio Codec
Format profile : LC
Codec ID : A_AAC
Duration : 2h 22mn
Channel(s) : 2 channels
Channel positions : Front: L R
Sampling rate : 48.0 KHz
Compression mode : Lossy
Delay relative to video : 9ms
Title : Isolated Music and Effects Track
Language : English
Default : No
Forced : No
Text #1
ID : 6
Format : UTF-8
Codec ID : S_TEXT/UTF8
Codec ID/Info : UTF-8 Plain Text
Language : Russian
Default : No
Forced : No
Text #2
ID : 7
Format : UTF-8
Codec ID : S_TEXT/UTF8
Codec ID/Info : UTF-8 Plain Text
Title : SDH
Language : English
Default : No
Forced : No
Menu #1
00:00:00.000 : en:00:00:00.000
00:07:45.298 : en:00:07:45.298
00:11:44.245 : en:00:11:44.245
00:17:57.618 : en:00:17:57.618
00:24:12.743 : en:00:24:12.743
00:30:16.815 : en:00:30:16.815
00:35:25.248 : en:00:35:25.248
00:40:56.454 : en:00:40:56.454
00:46:09.058 : en:00:46:09.058
00:53:20.531 : en:00:53:20.531
00:58:52.154 : en:00:58:52.154
01:06:07.297 : en:01:06:07.297
01:11:05.261 : en:01:11:05.261
01:17:22.179 : en:01:17:22.179
01:24:20.055 : en:01:24:20.055
01:28:25.842 : en:01:28:25.842
01:36:20.775 : en:01:36:20.775
01:43:02.009 : en:01:43:02.009
01:47:26.315 : en:01:47:26.315
01:55:49.067 : en:01:55:49.067
01:59:17.150 : en:01:59:17.150
02:04:31.297 : en:02:04:31.297
02:11:18.621 : en:02:11:18.621
02:15:01.844 : en:02:15:01.844
Menu #2
00:00:00.054 : en:00:00:00.054

Скриншоты


_________________
Показать сообщения:    

Текущее время: Сегодня 17:39

Часовой пояс: GMT



Вы не можете начинать темы
Вы не можете отвечать на сообщения
Вы не можете редактировать свои сообщения
Вы не можете удалять свои сообщения
Вы не можете голосовать в опросах
Вы не можете прикреплять файлы к сообщениям
Вы не можете скачивать файлы