Важное объявление!
У Нас Все раздачи мультитрекерные, при нуле пиров в релизах, можете смело вставать на закачку!
 
Автор Сообщение

HUNTER

Стаж:
4 года 9 месяцев
Сообщений:
65013

Репутация: 101

[+] [-]
Вне форума [Профиль] [ЛС]

Солдатики / Маленькие солдаты / Small Soldiers
Страна: США
Жанр: фантастика, боевик, комедия, приключения, семейный
Год выпуска: 1998
Продолжительность: 01:49:47
Перевод: Профессиональный (многоголосый закадровый) Позитив-Мультимедиа
Перевод 2: Профессиональный (многоголосый закадровый) Премьер Видео Фильм
Перевод 3: Профессиональный (многоголосый закадровый) СТС
Перевод 4: Профессиональный (многоголосый закадровый) Первый канал
Перевод 5: Профессиональный (двухголосый закадровый) ТВ3
Перевод 6: Авторский (одноголосый закадровый) П. Гланц
Перевод 7: Авторский (одноголосый закадровый) Ю. Живов
Перевод 8: Одноголосый закадровый Неизвестный №1
Перевод 9: Одноголосый закадровый Неизвестный №2
Cубтитры: русские (full), английские (full)
Оригинальная аудиодорожка: английский
Режиссер: Джо Данте / Joe Dante
В ролях: Кирстен Данст, Грегори Смит, Джей Мор, Фил Хартман, Кевин Данн, Дэвид Кросс, Энн Магнусон, Дик Миллер, Венди Шал, Роберт Пикардо, Джейкоб Смит, Дениис Лири
Описание: Корпорация «Глоботек» задействовала в производстве игрушек военные технологии, один из разработчиков вставил в новую серию солдатиков сверхсовременные самообучающиеся микропроцессоры. В результате в магазин поступили злые десантники, запрограммированные воевать с добрыми фантастическими существами гаргонитами. Первым с ними столкнулся сын владельца маленького магазина игрушек, принявший сторону гаргонитов. Десантники, поначалу не трогавшие «гражданских лиц» вскоре перешли на совсем неигрушечные боевые действия и против людей. Мальчику, соседской девочке, а затем и их родителям пришлось вступить в бой. К ним присоединились и горе-разработчики, слишком поздно уразумевшие, каких бед они натворили. Даже мирные гаргониты, запрограммированные на то, чтобы прятаться, не выдержали и взялись за оружие.
Сэмпл: https://www.sendspace.com/file/srunr1
Тип релиза: BDRemux 1080p
Контейнер: MKV
Видео: MPEG-4 AVC/H.264 / 34994 kbps / 1920x1080 / 23.976 fps
Аудио 1: MVO Позитив-Мультимедиа (Rus) / AC3 / 6 ch / 448 kbps / 48 kHz
Аудио 2: MVO Премьер Видео Фильм (Rus) / AC3 / 2 ch / 192 kbps / 48 kHz
Аудио 3: MVO СТС (Rus) / AC3 / 2 ch / 192 kbps / 48 kHz
Аудио 4: MVO Первый канал (Rus) / AC3 / 2 ch / 192 kbps / 48 kHz
Аудио 5: DVO ТВ3 (Rus) / AC3 / 2 ch / 192 kbps / 48 kHz
Аудио 6: AVO Гланц (Rus) / AC3 / 6 ch / 448 kbps / 48 kHz
Аудио 7: AVO Живов (Rus) / AC3 / 2 ch / 192 kbps / 48 kHz
Аудио 8: VO Неизвестный №1 (Rus) / AC3 / 2 ch / 192 kbps / 48 kHz
Аудио 9: VO Неизвестный №2 (Rus) / AC3 / 2 ch / 192 kbps / 48 kHz
Аудио 10: English / DTS-HD MA / 5.1 / 48 kHz / 1997 kbps / 16-bit (DTS Core: 5.1 / 48 kHz / 1509 kbps / 16-bit)
Формат субтитров: softsub (SRT)
Доп. информация о субтитрах: Русские (full), Английские (full)
#Сохранены оригинальные чаптеры как на Blu-ray

MediaInfo

General
Unique ID : 189874666412825030535945016768475470679 (0x8ED887D3996E66109B868C9119809B57)
Complete name : J:\Torrents\1\Солдатики (1998) BDRemux-1080p.mkv
Format : Matroska
Format version : Version 2
File size : 28.6 GiB
Duration : 1h 49mn
Overall bit rate : 37.3 Mbps
Encoded date : UTC 2016-03-06 15:52:57
Writing application : mkvmerge v5.5.0 ('Healer') built on Apr 24 2012 23:47:03
Writing library : libebml v1.2.3 + libmatroska v1.3.0
Video
ID : 1
Format : AVC
Format/Info : Advanced Video Codec
Format profile : High@L4.1
Format settings, CABAC : Yes
Format settings, ReFrames : 4 frames
Format settings, GOP : M=4, N=24
Codec ID : V_MPEG4/ISO/AVC
Duration : 1h 49mn
Bit rate mode : Constant
Nominal bit rate : 35.0 Mbps
Width : 1 920 pixels
Height : 1 080 pixels
Display aspect ratio : 16:9
Frame rate mode : Constant
Frame rate : 23.976 (24000/1001) fps
Standard : NTSC
Color space : YUV
Chroma subsampling : 4:2:0
Bit depth : 8 bits
Scan type : Progressive
Bits/(Pixel*Frame) : 0.704
Title : BDRemux (1080p) / MPEG-4 AVC/H.264 / 35.0 mbps / 1920x1080 / 23.976 fps
Language : English
Default : Yes
Forced : Yes
Color range : Limited
Color primaries : BT.709
Transfer characteristics : BT.709
Matrix coefficients : BT.709
Audio #1
ID : 2
Format : AC-3
Format/Info : Audio Coding 3
Mode extension : CM (complete main)
Format settings, Endianness : Big
Codec ID : A_AC3
Duration : 1h 49mn
Bit rate mode : Constant
Bit rate : 448 Kbps
Channel(s) : 6 channels
Channel positions : Front: L C R, Side: L R, LFE
Sampling rate : 48.0 KHz
Frame rate : 31.250 fps (1536 spf)
Compression mode : Lossy
Stream size : 352 MiB (1%)
Title : MVO Позитив-Мультимедиа (Rus) / AC3 / 6 ch / 448 kbps / 48 kHz
Language : Russian
Default : Yes
Forced : Yes
Audio #2
ID : 3
Format : AC-3
Format/Info : Audio Coding 3
Mode extension : CM (complete main)
Format settings, Endianness : Big
Codec ID : A_AC3
Duration : 1h 49mn
Bit rate mode : Constant
Bit rate : 192 Kbps
Channel(s) : 2 channels
Channel positions : Front: L R
Sampling rate : 48.0 KHz
Frame rate : 31.250 fps (1536 spf)
Compression mode : Lossy
Delay relative to video : 400ms
Stream size : 151 MiB (1%)
Title : MVO Премьер Видео Фильм (Rus) / AC3 / 2 ch / 192 kbps / 48 kHz
Language : Russian
Default : No
Forced : No
Audio #3
ID : 4
Format : AC-3
Format/Info : Audio Coding 3
Mode extension : CM (complete main)
Format settings, Endianness : Big
Muxing mode : Header stripping
Codec ID : A_AC3
Duration : 1h 49mn
Bit rate mode : Constant
Bit rate : 192 Kbps
Channel(s) : 2 channels
Channel positions : Front: L R
Sampling rate : 48.0 KHz
Frame rate : 31.250 fps (1536 spf)
Compression mode : Lossy
Stream size : 151 MiB (1%)
Title : MVO СТС (Rus) / AC3 / 2 ch / 192 kbps / 48 kHz
Language : Russian
Default : No
Forced : No
Audio #4
ID : 5
Format : AC-3
Format/Info : Audio Coding 3
Mode extension : CM (complete main)
Format settings, Endianness : Big
Codec ID : A_AC3
Duration : 1h 49mn
Bit rate mode : Constant
Bit rate : 192 Kbps
Channel(s) : 2 channels
Channel positions : Front: L R
Sampling rate : 48.0 KHz
Frame rate : 31.250 fps (1536 spf)
Compression mode : Lossy
Stream size : 151 MiB (1%)
Title : MVO Первый канал (Rus) / AC3 / 2 ch / 192 kbps / 48 kHz
Language : Russian
Default : No
Forced : No
Audio #5
ID : 6
Format : AC-3
Format/Info : Audio Coding 3
Mode extension : CM (complete main)
Format settings, Endianness : Big
Codec ID : A_AC3
Duration : 1h 49mn
Bit rate mode : Constant
Bit rate : 192 Kbps
Channel(s) : 2 channels
Channel positions : Front: L R
Sampling rate : 48.0 KHz
Frame rate : 31.250 fps (1536 spf)
Compression mode : Lossy
Stream size : 151 MiB (1%)
Title : DVO ТВ3 (Rus) / AC3 / 2 ch / 192 kbps / 48 kHz
Language : Russian
Default : No
Forced : No
Audio #6
ID : 7
Format : AC-3
Format/Info : Audio Coding 3
Mode extension : CM (complete main)
Format settings, Endianness : Big
Codec ID : A_AC3
Duration : 1h 49mn
Bit rate mode : Constant
Bit rate : 448 Kbps
Channel(s) : 6 channels
Channel positions : Front: L C R, Side: L R, LFE
Sampling rate : 48.0 KHz
Frame rate : 31.250 fps (1536 spf)
Compression mode : Lossy
Stream size : 352 MiB (1%)
Title : AVO Гланц (Rus) / AC3 / 6 ch / 448 kbps / 48 kHz
Language : Russian
Default : No
Forced : No
Audio #7
ID : 8
Format : AC-3
Format/Info : Audio Coding 3
Mode extension : CM (complete main)
Format settings, Endianness : Big
Muxing mode : Header stripping
Codec ID : A_AC3
Duration : 1h 49mn
Bit rate mode : Constant
Bit rate : 192 Kbps
Channel(s) : 2 channels
Channel positions : Front: L R
Sampling rate : 48.0 KHz
Frame rate : 31.250 fps (1536 spf)
Compression mode : Lossy
Stream size : 151 MiB (1%)
Title : AVO Живов (Rus) / AC3 / 2 ch / 192 kbps / 48 kHz
Language : Russian
Default : No
Forced : No
Audio #8
ID : 9
Format : AC-3
Format/Info : Audio Coding 3
Mode extension : CM (complete main)
Format settings, Endianness : Big
Codec ID : A_AC3
Duration : 1h 49mn
Bit rate mode : Constant
Bit rate : 192 Kbps
Channel(s) : 2 channels
Channel positions : Front: L R
Sampling rate : 48.0 KHz
Frame rate : 31.250 fps (1536 spf)
Compression mode : Lossy
Stream size : 151 MiB (1%)
Title : VO Неизвестный №1 (Rus) / AC3 / 2 ch / 192 kbps / 48 kHz
Language : Russian
Default : No
Forced : No
Audio #9
ID : 10
Format : AC-3
Format/Info : Audio Coding 3
Mode extension : CM (complete main)
Format settings, Endianness : Big
Muxing mode : Header stripping
Codec ID : A_AC3
Duration : 1h 49mn
Bit rate mode : Constant
Bit rate : 192 Kbps
Channel(s) : 2 channels
Channel positions : Front: L R
Sampling rate : 48.0 KHz
Frame rate : 31.250 fps (1536 spf)
Compression mode : Lossy
Stream size : 151 MiB (1%)
Title : VO Неизвестный №2 (Rus) / AC3 / 2 ch / 192 kbps / 48 kHz
Language : Russian
Default : No
Forced : No
Audio #10
ID : 11
Format : DTS
Format/Info : Digital Theater Systems
Format profile : MA / Core
Mode : 16
Format settings, Endianness : Big
Muxing mode : Header stripping
Codec ID : A_DTS
Duration : 1h 49mn
Bit rate mode : Variable / Constant
Bit rate : Unknown / 1 509 Kbps
Channel(s) : 6 channels
Channel positions : Front: L C R, Side: L R, LFE
Sampling rate : 48.0 KHz
Frame rate : 93.750 fps (512 spf)
Bit depth : 16 bits
Compression mode : Lossless / Lossy
Title : Original (Eng) / DTS-HD MA / 6 ch / 1997 kbps / 48 kHz
Language : English
Default : No
Forced : No
Text #1
ID : 12
Format : UTF-8
Codec ID : S_TEXT/UTF8
Codec ID/Info : UTF-8 Plain Text
Title : Full (Rus) / S_TEXT/UTF8
Language : Russian
Default : No
Forced : No
Text #2
ID : 13
Format : UTF-8
Codec ID : S_TEXT/UTF8
Codec ID/Info : UTF-8 Plain Text
Title : Full (Eng) / S_TEXT/UTF8
Language : English
Default : No
Forced : No
Menu
00:00:00.000 : en:Chapter 01
00:07:30.324 : en:Chapter 02
00:10:31.672 : en:Chapter 03
00:18:36.281 : en:Chapter 04
00:21:43.302 : en:Chapter 05
00:29:40.528 : en:Chapter 06
00:35:30.711 : en:Chapter 07
00:42:50.484 : en:Chapter 08
00:49:42.521 : en:Chapter 09
00:58:14.699 : en:Chapter 10
01:04:33.744 : en:Chapter 11
01:12:49.740 : en:Chapter 12
01:18:46.263 : en:Chapter 13
01:28:05.905 : en:Chapter 14
01:37:45.192 : en:Chapter 15
01:44:15.165 : en:Chapter 16

Скриншоты

Цитата:
Цитата:

  • Звуковая дорожка №2 скачана с данного трекера, но самой раздачи не сохранилось
  • Звуковые дорожки №4, №5, №7, №8, №9 взяты из раздачи пользователя [url=profile.php?mode=viewprofile&u=20398762]JUSTKANT[/url]

_________________
Показать сообщения:    

Текущее время: Сегодня 23:41

Часовой пояс: GMT



Вы не можете начинать темы
Вы не можете отвечать на сообщения
Вы не можете редактировать свои сообщения
Вы не можете удалять свои сообщения
Вы не можете голосовать в опросах
Вы не можете прикреплять файлы к сообщениям
Вы не можете скачивать файлы