Важное объявление!
У Нас Все раздачи мультитрекерные, при нуле пиров в релизах, можете смело вставать на закачку!
 
Автор Сообщение

HUNTER

Стаж:
4 года 11 месяцев
Сообщений:
66026

Репутация: 101

[+] [-]
Вне форума [Профиль] [ЛС]

Солана, Людвиг и Гурин с лисьим хвостом / Solan, Ludvig og Gurin med reverompa
Страна: Норвегия
Жанр: Приключения
Продолжительность: 01:12:24
Год выпуска: 1998
Перевод: Одноголосый закадровый
Русские субтитры: нет
Режиссёр: Джон М. Якобсен, Нил Тисдат / John M. Jacobsen, Nille Tystad
Описание: История разворачивается вокруг гнома Гурина, который любил подшучивать над другими и в наказание за это однажды проснулся с лисьм хвостом. Известие о его роскошном хвосте достигает столицы, и богатая вдова Стенгенфохн-Гнад хочет заполучить хвост на воротник. Она нанимает детектива Гундерсена, но он вместе с Людвигом решают помочь гному и мчатся ему на выручку на мотоцикле…
Семпл
Качество: DVDRip
Формат: AVI
Видео: 720x400 (1.80:1), 25 fps, XviD build 50 ~2076 kbps avg, 0.29 bit/pixel
Аудио 1: 48 kHz, AC3 Dolby Digital, 2/0 (L,R) ch, ~224.00 kbps avg (рус)
Аудио 2: 48 kHz, AC3 Dolby Digital, 3/2 (L,C,R,l,r) ch, ~384.00 kbps avg (нор)

Подробные технические данные

GeneralGeneralComplete name : D:\MOVIE\Solan, Ludvig og Gurin Med Reverompa.aviFormat : AVIFormat/Info : Audio Video InterleaveFile size : 1.37 GiBDuration : 1h 12mnOverall bit rate : 2 700 KbpsWriting application : VirtualDubMod 1.5.10.2 (build 2540/release)Writing library : VirtualDubMod build 2540/release
VideoID : 0Format : MPEG-4 VisualFormat profile : Advanced Simple@L5Format settings, BVOP : 1Format settings, QPel : NoFormat settings, GMC : No warppointsFormat settings, Matrix : Default (H.263)Codec ID : XVIDCodec ID/Hint : XviDDuration : 1h 12mnBit rate : 2 078 KbpsWidth : 720 pixelsHeight : 400 pixelsDisplay aspect ratio : 16:9Frame rate : 25.000 fpsColor space : YUVChroma subsampling : 4:2:0Bit depth : 8 bitsScan type : ProgressiveCompression mode : LossyBits/(Pixel*Frame) : 0.289Stream size : 1.05 GiB (77%)Writing library : XviD 1.2.1 (UTC 2008-12-04)
Audio #1ID : 1Format : AC-3Format/Info : Audio Coding 3Mode extension : CM (complete main)Format settings, Endianness : BigCodec ID : 2000Duration : 1h 12mnBit rate mode : ConstantBit rate : 224 KbpsChannel(s) : 2 channelsChannel positions : Front: L RSampling rate : 48.0 KHzBit depth : 16 bitsCompression mode : LossyStream size : 116 MiB (8%)Alignment : Split accross interleavesInterleave, duration : 40 ms (1.00 video frame)Interleave, preload duration : 500 ms
Audio #2ID : 2Format : AC-3Format/Info : Audio Coding 3Mode extension : CM (complete main)Format settings, Endianness : BigCodec ID : 2000Duration : 1h 12mnBit rate mode : ConstantBit rate : 384 KbpsChannel(s) : 6 channelsChannel(s)_Original : 5 channelsChannel positions : Front: L C R, Side: L RSampling rate : 48.0 KHzBit depth : 16 bitsCompression mode : LossyStream size : 199 MiB (14%)Alignment : Split accross interleavesInterleave, duration : 40 ms (1.00 video frame)Interleave, preload duration : 500 ms

Скриншоты




_________________
Показать сообщения:    

Текущее время: Сегодня 15:33

Часовой пояс: GMT



Вы не можете начинать темы
Вы не можете отвечать на сообщения
Вы не можете редактировать свои сообщения
Вы не можете удалять свои сообщения
Вы не можете голосовать в опросах
Вы не можете прикреплять файлы к сообщениям
Вы не можете скачивать файлы