Ивановский Торрент трекер
Яндекс.Погода
 

[Цитировать]
HUNTER

Сокрытые миры / Скрытые миры / Hidden Kingdoms
Год выпуска: 2014
Страна: Великобритания, British Broadcasting Corporation
Жанр: Документальный, научно-познавательный, природа, фауна, исследование
Продолжительность: ~ 00:42:50
Перевод: Авторский (одноголосый закадровый)
Доп. инфо о переводе: Владимир Курдов
Русские субтитры: нет
Оригинальная аудиодорожка: английский
Режиссер: Саймон Белл / Simon Bell
Описание: Новый инновационный сериал от мастеров жанра канала ВВС. На этот раз мы не просто станем свидетелями жизни животных, а перенесемся в мир миниатюры, где маленькие существа борются за жизнь наравне с большими и сильными обитателями фауны. Мы увидим, как они видят нас. Сможем заметить, как от движений маленьких животных шевелятся травинки. Уникальный спектр съемки позволит уловить самые незаметные движения. Мы узнаем мир их глазами, в полной мере ощутив себя гостями парка Юрского периода. Леса Борнео, пустыни Африки и Аризоны, мрачные леса Северной Америки и даже городские джунгли Токио и Рио! Они повсюду, они живут по своим законам, но настало время раскрыть большие тайны маленьких существ и еще раз восхититься уникальной и мудрой природой нашей планеты.
Доп. информация:
Сэмпл: http://multi-up.com/958531
качество: HDTVRip
формат: AVI
Видео: XviD, 720x400 (16:9), 1 525 kbps
Аудио: MP3, 128 kbps, 48,0 kHz, 2 ch
Аудио 2: MP3, 128 kbps, 48,0 kHz, 2 ch
Содержание:
01. Under Open Skies | Под открытым небом
Первая серия это истории о двух юных существах вынужденных рано повзрослеть. В Африканской саванне слоновый прыгунчик узнает что скорость является секретом выживания, а в Американской пустыне Сонора молодой кузнечиковый хомячок научится противостоять смертоносным тварям Дикого Запада.
02. Secret Forests | Таинственные леса
03. Urban Jungles | Городские джунгли

MediaInfo

ОбщееПолное имя : Hidden.Kingdoms.01.HDTVRip.NewStudio.TV.aviФормат : AVIФормат/Информация : Audio Video InterleaveРазмер файла : 549 МбайтПродолжительность : 48 м.Общий поток : 1574 Кбит/секПрограмма кодирования : VirtualDubMod 1.5.10.2 (build 2540/release)Библиотека кодирования : VirtualDubMod build 2540/release
ВидеоИдентификатор : 0Формат : MPEG-4 VisualПрофиль формата : Advanced Simple@L5Параметр BVOP формата : 2Параметр QPel формата : НетПараметр GMC формата : Без точки переходаПараметр матрицы формата : Default (MPEG)Идентификатор кодека : XVIDИдентификатор кодека/Подсказка : XviDПродолжительность : 48 м.Битрейт : 1304 Кбит/секШирина : 720 пикселейВысота : 400 пикселейСоотношение сторон : 16:9Частота кадров : 25,000 кадров/секЦветовое пространство : YUVСубдискретизация насыщенности : 4:2:0Битовая глубина : 8 битТип развёртки : ПрогрессивнаяМетод сжатия : С потерямиБит/(Пиксели*Кадры) : 0.181Размер потока : 455 Мбайт (83%)Библиотека кодирования : XviD 64
Аудио #1Идентификатор : 1Формат : MPEG AudioВерсия формата : Version 1Профиль формата : Layer 3Режим : Joint stereoРасширение режима : MS StereoИдентификатор кодека : 55Идентификатор кодека/Подсказка : MP3Продолжительность : 48 м.Вид битрейта : ПостоянныйБитрейт : 128 Кбит/секКаналы : 2 каналаЧастота : 48,0 КГцМетод сжатия : С потерямиРазмер потока : 44,6 Мбайт (8%)Выравнивание : Соединение по промежуткамПродолжительность промежутка : 40 мс. (1,00 видеокадр)Время предзагрузки промежутка : 504 мс.
Аудио #2Идентификатор : 2Формат : MPEG AudioВерсия формата : Version 1Профиль формата : Layer 3Режим : Joint stereoРасширение режима : MS StereoИдентификатор кодека : 55Идентификатор кодека/Подсказка : MP3Продолжительность : 48 м.Вид битрейта : ПостоянныйБитрейт : 128 Кбит/секКаналы : 2 каналаЧастота : 48,0 КГцМетод сжатия : С потерямиРазмер потока : 44,6 Мбайт (8%)Выравнивание : Соединение по промежуткамПродолжительность промежутка : 40 мс. (1,00 видеокадр)Время предзагрузки промежутка : 504 мс.

Скриншоты



Показать сообщения:    

Текущее время: 15-Дек 12:08

Часовой пояс: UTC ± 0


Вы не можете начинать темы
Вы не можете отвечать на сообщения
Вы не можете редактировать свои сообщения
Вы не можете удалять свои сообщения
Вы не можете голосовать в опросах
Вы не можете прикреплять файлы к сообщениям
Вы не можете скачивать файлы

!ВНИМАНИЕ!
Сайт не предоставляет электронные версии произведений, а занимается лишь коллекционированием и каталогизацией ссылок, присылаемых и публикуемых на форуме нашими читателями. Если вы являетесь правообладателем какого-либо представленного материала и не желаете, чтобы ссылка на него находилась в нашем каталоге, свяжитесь с нами, и мы незамедлительно удалим ее. Файлы для обмена на трекере предоставлены пользователями сайта, и администрация не несет ответственности за их содержание. Просьба не заливать файлы, защищенные авторскими правами, а также файлы нелегального содержания!