Важное объявление!
У Нас Все раздачи мультитрекерные, при нуле пиров в релизах, можете смело вставать на закачку!
 
Автор Сообщение

HUNTER

Стаж:
4 года 10 месяцев
Сообщений:
65570

Репутация: 101

[+] [-]
Вне форума [Профиль] [ЛС]

Сокровища Нананы | Ryuugajou Nanana no Maizoukin | Nanana's Buried Treasure
-Год выпуска: 2014
Страна: Япония
Жанр: комедия, романтика, сверхъестественное.
-Режиссёр: Камэй Канта.
Студия: A-1 Pictures Inc. (подробнее...)

-Перевод:
Русские субтитры: [LeDi-MaHo Team]
  • Перевод & лирика: MantisFL
  • Редакция & оформление: Holydarkness
-Описание: Главным героем выступает ОЯШ по имени Дзюго, от которого отрёкся родной отец, в результате чего парень был вынужден перевестись в старшую школу в «Особой Студенческой Зоне» на искусственном острове. Имея за душой всего 40 000 (около $400) месячного довольствия, Дзюго снимает самую дешёвую квартиру, где знакомится с призраком Нананы, прекрасной девушки, которая, однако, при жизни было NEET’ом. Причем, не смотря на сомнительный социальный статус, у Нананы было некое «сокровище, обладающее таинственной силой», которое ныне спрятано где-то на острове. К охоте за этим самым сокровищем и подключается главный герой, вместе с членами школьного клуба любителей приключений. World Art.-Качество: HDTVRip | Формат: MP4 | Тип видео: без хардсаба | Продолжительность: ТВ (11 эп.), 25 мин. | Видео: [Leopard-Raws]
Видео кодек: H.264
Аудио кодек: AAC
Видео: H.264; 1280x720; ~1496Kbps, 23.976fps; (8 bit)
Аудио: JAP, AAC; 44100Hz; ~192Kbps (2ch);

Скриншоты [превью]


-

Название эпизодов

01.Disowned and Exiled.

-

MediaInfo


Общее
Полное имя : C:\Users\Home PC\Desktop\Ryuugajou Nanana no Maizoukin - 01.mp4
Формат : MPEG-4
Профиль формата : Base Media
Идентификатор кодека : isom
Размер файла : 278 Мбайт
Продолжительность : 23 м.
Режим общего битрейта : Переменный
Общий поток : 1691 Кбит/сек
Дата кодирования : UTC 2014-04-10 19:27:57
Дата пометки : UTC 2014-04-10 19:27:57
Видео
Идентификатор : 1
Формат : AVC
Формат/Информация : Advanced Video Codec
Профиль формата : High@L4.1
Параметр CABAC формата : Да
Параметр ReFrames формата : 4 кадра
Идентификатор кодека : avc1
Идентификатор кодека/Информация : Advanced Video Coding
Продолжительность : 22 м.
Битрейт : 1496 Кбит/сек
Максимальный битрейт : 7772 Кбит/сек
Ширина : 1280 пикселей
Высота : 720 пикселей
Соотношение сторон : 16:9
Режим частоты кадров : Постоянный
Частота кадров : 23,976 кадра/сек
Цветовое пространство : YUV
Субдискретизация насыщенности : 4:2:0
Битовая глубина : 8 бит
Тип развёртки : Прогрессивная
Бит/(Пиксели*Кадры) : 0.068
Размер потока : 246 Мбайт (88%)
Заголовок : 264:fps=23.976@GPAC0.5.1-DEV-rev4283
Библиотека кодирования : x264 core 129 r2245+729M 1a52e03
Настройки программы : cabac=1 / ref=4 / deblock=1:1:-1 / analyse=0x3:0x113 / me=umh / subme=9 / psy=1 / fade_compensate=0.00 / psy_rd=1.00:0.00 / mixed_ref=1 / me_range=24 / chroma_me=1 / trellis=2 / 8x8dct=1 / cqm=0 / deadzone=21,11 / fast_pskip=1 / chroma_qp_offset=-2 / threads=8 / lookahead_threads=1 / sliced_threads=0 / nr=0 / decimate=1 / interlaced=0 / bluray_compat=0 / constrained_intra=0 / fgo=0 / bframes=9 / b_pyramid=2 / b_adapt=2 / b_bias=0 / direct=1 / weightb=1 / open_gop=0 / weightp=2 / keyint=240 / keyint_min=24 / scenecut=40 / intra_refresh=0 / rc=crf / mbtree=0 / crf=19.0 / qcomp=0.72 / qpmin=0 / qpmax=69 / qpstep=4 / ip_ratio=1.40 / pb_ratio=1.30 / aq=1:0.85
Дата кодирования : UTC 2014-04-10 19:27:57
Дата пометки : UTC 2014-04-10 19:28:01
Основные цвета : BT.709
Характеристики трансфера : BT.709
Коэффициенты матрицы : BT.709
Аудио
Идентификатор : 2
Формат : AAC
Формат/Информация : Advanced Audio Codec
Профиль формата : LC
Идентификатор кодека : 40
Продолжительность : 23 м.
Вид битрейта : Переменный
Битрейт : 192 Кбит/сек
Максимальный битрейт : 235 Кбит/сек
Каналы : 2 канала
Расположение каналов : Front: L R
Частота : 48,0 КГц
Метод сжатия : С потерями
Размер потока : 31,4 Мбайт (11%)
Язык : Japanese
Дата кодирования : UTC 2014-04-10 17:51:58
Дата пометки : UTC 2014-04-10 19:28:01
-Внимание! Это обновляемая раздача. Серии добавляются по мере выхода русских субтитров.-

_________________
Показать сообщения:    

Текущее время: Сегодня 18:48

Часовой пояс: GMT



Вы не можете начинать темы
Вы не можете отвечать на сообщения
Вы не можете редактировать свои сообщения
Вы не можете удалять свои сообщения
Вы не можете голосовать в опросах
Вы не можете прикреплять файлы к сообщениям
Вы не можете скачивать файлы