Важное объявление!
У Нас Все раздачи мультитрекерные, при нуле пиров в релизах, можете смело вставать на закачку!
 
Автор Сообщение

HUNTER

Стаж:
4 года 9 месяцев
Сообщений:
65033

Репутация: 101

[+] [-]
Вне форума [Профиль] [ЛС]

Создание водоема: шаг за шагом / The Garden Pond – Step by Step (OASE)
Год выпуска: 2010
Тематика: Садовый дизайн
Продолжительность: 00:22:19.719 (33493 frames)
Язык: Русский
Описание: Кто из нас не мечтал жить рядом с водоемом? Но не всегда с нашим обителем находится этот элемент ландшафта... В данном фильме специалисты шаг за шагом расскажут, как обустроить свой участок и создать на нем водоем с минимальными затратами. Посмотрите фильм, соберите творческие идеи и начните воплощать их в жизнь. Вы сами удивитесь, что создать райский оазис так просто!
Благодарность: большое спасибо strecpro за DVD5.
Качество: DVDRip (Источник)
Формат: AVI
Видео кодек: XviD
Аудио кодек: MP3
Видео: 640x480 (1.33:1), 25 fps, XviD build 50 ~2178 kbps avg, 0.28 bit/pixel
Аудио: 48 kHz, MPEG Layer 3, 2 ch, ~128.00 kbps avg

Отчет MediaInfo

General
Complete name : D:\OASE. Создание водоема - шаг за шагом.avi
Format : AVI
Format/Info : Audio Video Interleave
File size : 370 MiB
Duration : 22mn 19s
Overall bit rate : 2 317 Kbps
Writing application : VirtualDubMod 1.5.10.2 (build 2540/release)
Writing library : VirtualDubMod build 2540/release
Video
ID : 0
Format : MPEG-4 Visual
Format profile : AdvancedSimple@L5
Format settings, BVOP : Yes
Format settings, QPel : No
Format settings, GMC : No warppoints
Format settings, Matrix : Default (MPEG)
Codec ID : XVID
Codec ID/Hint : XviD
Duration : 22mn 19s
Bit rate : 2 179 Kbps
Width : 640 pixels
Height : 480 pixels
Display aspect ratio : 4:3
Frame rate : 25.000 fps
Resolution : 24 bits
Colorimetry : 4:2:0
Scan type : Progressive
Bits/(Pixel*Frame) : 0.284
Stream size : 348 MiB (94%)
Writing library : XviD 1.2.1 (UTC 2008-12-04)
Audio
ID : 1
Format : MPEG Audio
Format version : Version 1
Format profile : Layer 3
Codec ID : 55
Codec ID/Hint : MP3
Duration : 22mn 19s
Bit rate mode : Constant
Bit rate : 128 Kbps
Channel(s) : 2 channels
Sampling rate : 48.0 KHz
Resolution : 16 bits
Stream size : 20.4 MiB (6%)
Alignment : Aligned on interleaves
Interleave, duration : 40 ms (1.00 video frame)
Interleave, preload duration : 504 ms
Writing library : LAME3.98r
Encoding settings : -m s -V 4 -q 2 -lowpass 17 -b 128

Скриншоты



_________________
Показать сообщения:    

Текущее время: Сегодня 09:30

Часовой пояс: GMT



Вы не можете начинать темы
Вы не можете отвечать на сообщения
Вы не можете редактировать свои сообщения
Вы не можете удалять свои сообщения
Вы не можете голосовать в опросах
Вы не можете прикреплять файлы к сообщениям
Вы не можете скачивать файлы