Ивановский Торрент трекер
Яндекс.Погода
 

[Цитировать]
HUNTER

Создание водоема: шаг за шагом
Жанр: Документальный, обучающий
Продолжительность: 00:22:19
Перевод: Профессиональный (одноголосый)
Русские субтитры: нет
Производитель диска: OASE
Описание: Кто из нас не мечтал жить рядом с водоемом? Но не всегда с нашим обителем находится этот элемент ландшафта... В данном фильме специалисты шаг за шагом расскажут, как обустроить свой участок и создать на нем водоем с минимальными затратами. Посмотрите фильм, соберите творческие идеи и начните воплощать их в жизнь. Вы сами удивитесь, что создать райский оазис так просто!
От себя: Довольно короткий, но толковый фильм. Ничего лишнего - только практика и передовой опыт.
Качество: DVD5
Формат: DVD Video
Видео кодек: MPEG2
Аудио кодек: MPEG Audio, 192 Kbps, 48.0 KHz
Видео: PAL 4:3 (720x576) VBR, 25 fps
Аудио: Deutsch (MPEG1, 2 ch) English (MPEG1, 2 ch) Nederlands (MPEG1, 2 ch) Francais (MPEG1, 2 ch) Espanol (MPEG1, 2 ch) Italiano (MPEG1, 2 ch) Svenska (MPEG1, 2 ch) Dansk (MPEG1, 2 ch)

Отчет MediaInfo

General
Complete name : G:\OASE. Создание водоема - шаг за шагом\VIDEO_TS\VTS_01_2.VOB
Format : MPEG-PS
File size : 524 MiB
Duration : 7mn 33s
Overall bit rate : 9 689 Kbps
Video
ID : 224 (0xE0)
Format : MPEG Video
Format version : Version 2
Format profile : Main@Main
Format settings, Matrix : Default
Duration : 7mn 33s
Bit rate mode : Constant
Bit rate : 7 769 Kbps
Nominal bit rate : 8 000 Kbps
Width : 720 pixels
Height : 576 pixels
Display aspect ratio : 4:3
Frame rate : 25.000 fps
Standard : PAL
Colorimetry : 4:2:0
Scan type : Interlaced
Scan order : Top Field First
Bits/(Pixel*Frame) : 0.749
Stream size : 420 MiB (80%)
Audio #1
ID : 192 (0xC0)
Format : MPEG Audio
Format version : Version 1
Format profile : Layer 2
Duration : 7mn 33s
Bit rate mode : Constant
Bit rate : 192 Kbps
Channel(s) : 2 channels
Sampling rate : 48.0 KHz
Resolution : 16 bits
Video delay : -192ms
Stream size : 10.4 MiB (2%)
Audio #2
ID : 193 (0xC1)
Format : MPEG Audio
Format version : Version 1
Format profile : Layer 2
Duration : 7mn 33s
Bit rate mode : Constant
Bit rate : 192 Kbps
Channel(s) : 2 channels
Sampling rate : 48.0 KHz
Resolution : 16 bits
Video delay : -192ms
Stream size : 10.4 MiB (2%)
Audio #3
ID : 194 (0xC2)
Format : MPEG Audio
Format version : Version 1
Format profile : Layer 2
Duration : 7mn 33s
Bit rate mode : Constant
Bit rate : 192 Kbps
Channel(s) : 2 channels
Sampling rate : 48.0 KHz
Resolution : 16 bits
Video delay : -168ms
Stream size : 10.4 MiB (2%)
Audio #4
ID : 195 (0xC3)
Format : MPEG Audio
Format version : Version 1
Format profile : Layer 2
Duration : 7mn 33s
Bit rate mode : Constant
Bit rate : 192 Kbps
Channel(s) : 2 channels
Sampling rate : 48.0 KHz
Resolution : 16 bits
Video delay : -168ms
Stream size : 10.4 MiB (2%)
Audio #5
ID : 196 (0xC4)
Format : MPEG Audio
Format version : Version 1
Format profile : Layer 2
Duration : 7mn 33s
Bit rate mode : Constant
Bit rate : 192 Kbps
Channel(s) : 2 channels
Sampling rate : 48.0 KHz
Resolution : 16 bits
Video delay : -144ms
Stream size : 10.4 MiB (2%)
Audio #6
ID : 197 (0xC5)
Format : MPEG Audio
Format version : Version 1
Format profile : Layer 2
Duration : 7mn 33s
Bit rate mode : Constant
Bit rate : 192 Kbps
Channel(s) : 2 channels
Sampling rate : 48.0 KHz
Resolution : 16 bits
Video delay : -216ms
Stream size : 10.4 MiB (2%)
Audio #7
ID : 198 (0xC6)
Format : MPEG Audio
Format version : Version 1
Format profile : Layer 2
Duration : 7mn 33s
Bit rate mode : Constant
Bit rate : 192 Kbps
Channel(s) : 2 channels
Sampling rate : 48.0 KHz
Resolution : 16 bits
Video delay : -216ms
Stream size : 10.4 MiB (2%)
Audio #8
ID : 199 (0xC7)
Format : MPEG Audio
Format version : Version 1
Format profile : Layer 2
Duration : 7mn 33s
Bit rate mode : Constant
Bit rate : 192 Kbps
Channel(s) : 2 channels
Sampling rate : 48.0 KHz
Resolution : 16 bits
Video delay : -216ms
Stream size : 10.4 MiB (2%)

Скриншоты

Показать сообщения:    

Текущее время: 19-Окт 04:42

Часовой пояс: UTC - 1


Вы не можете начинать темы
Вы не можете отвечать на сообщения
Вы не можете редактировать свои сообщения
Вы не можете удалять свои сообщения
Вы не можете голосовать в опросах
Вы не можете прикреплять файлы к сообщениям
Вы не можете скачивать файлы

!ВНИМАНИЕ!
Сайт не предоставляет электронные версии произведений, а занимается лишь коллекционированием и каталогизацией ссылок, присылаемых и публикуемых на форуме нашими читателями. Если вы являетесь правообладателем какого-либо представленного материала и не желаете, чтобы ссылка на него находилась в нашем каталоге, свяжитесь с нами, и мы незамедлительно удалим ее. Файлы для обмена на трекере предоставлены пользователями сайта, и администрация не несет ответственности за их содержание. Просьба не заливать файлы, защищенные авторскими правами, а также файлы нелегального содержания!