Советы с того света / Командный дух / Teen Spirit (Джил Джангер / Gil Junger) [2011, фэнтези, драма, комедия, DVDRip] Dub (Дисней) :: Ивановский Торрент трекер
Важное объявление!
У Нас Все раздачи мультитрекерные, при нуле пиров в релизах, можете смело вставать на закачку!
Статистика раздачи
Размер:     |    Зарегистрирован:     |    Скачан:     |   
Нет
 
     
 
 
Автор Сообщение

bomovsky15

Стаж:
4 года 10 месяцев
Сообщений:
3
Вне форума [Профиль] [ЛС]

Советы с того света / Командный дух / Teen Spirit
Страна: США
Жанр: фэнтези, драма, комедия
Год выпуска: 2011
Продолжительность: 01:21:33
Перевод: Профессиональный (дублированный) Дисней
Cубтитры: нет
Оригинальная аудиодорожка: нет
Режиссер: Джил Джангер / Gil Junger
В ролях: Крис Зилка, Линдси Шоу, Кэсси Сербо, Рода Гриффис, Елена Варела, Андреа Пауэлл, Люсиус Бастон мл., Каллен Мосс, Карисса Капобьянко, Кэти Гарнер
Описание: Сюжет вращается вокруг Амбер, стервозной популярной девушки, которая умирает от удара током. Ее не пустят на небеса, если она не поможет самой непопулярной в школе девушке — Лизе — стать королевой выпускного бала в течение недели, но… все пошло не так, как планировалось.

Доп. информация: Запись звука и синхронизация vedigo
Качество видео: DVDRip
Формат видео: AVI
Видео: XviD 720x400 (16:9)) 23.976fps Bit rate 2249Kbps Bits/Pixel 0.326
Аудио: AC3 48.0 KHz 2ch. 192kbps

MediaInfo

General
Complete name : E:\torrent\Komandnyi duh.avi
Format : AVI
Format/Info : Audio Video Interleave
File size : 1.40 GiB
Duration : 1h 21mn
Overall bit rate : 2 450 Kbps
Writing library : VirtualDub build 32842/release
Video
ID : 0
Format : MPEG-4 Visual
Format profile : Advanced Simple@L5
Format settings, BVOP : Yes
Format settings, QPel : No
Format settings, GMC : No warppoints
Format settings, Matrix : Default (H.263)
Codec ID : XVID
Codec ID/Hint : XviD
Duration : 1h 21mn
Bit rate : 2 249 Kbps
Width : 720 pixels
Height : 400 pixels
Display aspect ratio : 16:9
Frame rate : 23.976 fps
Color space : YUV
Chroma subsampling : 4:2:0
Bit depth : 8 bits
Scan type : Progressive
Bits/(Pixel*Frame) : 0.326
Stream size : 1.28 GiB (92%)
Writing library : XviD 1.2.1 (UTC 2008-12-04)
Audio
ID : 1
Format : AC-3
Format/Info : Audio Coding 3
Mode extension : CM (complete main)
Codec ID : 2000
Duration : 1h 21mn
Bit rate mode : Constant
Bit rate : 192 Kbps
Channel(s) : 2 channels
Channel positions : Front: L R
Sampling rate : 48.0 KHz
Bit depth : 16 bits
Stream size : 112 MiB (8%)
Alignment : Aligned on interleaves
Interleave, duration : 42 ms (1.00 video frame)
Interleave, preload duration : 512 ms

Скриншот c названием фильма

Скриншоты

Показать сообщения:    

Текущее время: Сегодня 05:38

Часовой пояс: GMT



Вы не можете начинать темы
Вы не можете отвечать на сообщения
Вы не можете редактировать свои сообщения
Вы не можете удалять свои сообщения
Вы не можете голосовать в опросах
Вы не можете прикреплять файлы к сообщениям
Вы не можете скачивать файлы