Важное объявление!
У Нас Все раздачи мультитрекерные, при нуле пиров в релизах, можете смело вставать на закачку!
Статистика раздачи
Размер:     |    Зарегистрирован:     |    Скачан:     |   
Нет
 
     
 
 
Автор Сообщение

HUNTER

Стаж:
5 лет 1 месяц
Сообщений:
68429

Репутация: 101

[+] [-]
Вне форума [Профиль] [ЛС]

Советский Ураган: Великая Отечественная Война / Soviet Storm: WWII in the East-
Год выпуска: 2011-2012
Страна: Великобритания, Россия
Жанр: Документальный, ВОВ
Продолжительность: 00:44:50
Перевод: Студийный (одноголосный закадровый)
Русские субтитры: нет
Описание: Годы, отделяющие нас от событий Второй мировой войны и 5 лет Великой Отечественной войны, дают возможность исследователям открыть новые страницы того героического и трагического времени. Современная 3D анимация и достоверная реконструкция событий дают нам возможность представить себя в гуще воздушных боев неба Москвы, Кавказа и Берлина, танковых атак на Курской дуге и рукопашных схваток под Ржевом и Севастополем. Сталинградская битва, Ленинградская Дорога жизни, Гитлеровские планы захвата кавказской нефти, работа агентурной разведки, самый массовый истребитель, действия подводников северного флота, открытие Второго фронта, действия партизан и многое, многое другое. Но главные герои эпохального проекта - люди: солдаты и матросы, офицеры и старшины, маршалы и генералы - герои самой кровопролитной войны XX века.
"Компания A+E Networks™ UK (известная как The History Channel (UK)), приобрела права на производство и показ полностью дублированной на английский язык версии восемнадцати эпизодов российской докудрамы «Великая война», произведенной студией «Бабич Дизайн» (входит в группу Star Media). Проект получил название SOVIET STORM – WW2 IN THE EAST.
качество: DVB by BS666 Сэмпл
формат: TS
Видео: MPEG2 | 720x576@1024x576 (16:9) | ~3 402 Kbps | 25.000 fps | ~0.328 bits/pix
Аудио: MP2 | 48KHz | 2.0 (2ch) | 128 kbps [RUS | ENG]

Список выпусков/серий

S01E05 The Battle of Kursk | Курская битва
S01E06 Operation Bagration | Операция "Багратион"
S01E07 The Liberation of Ukraine | Освобождение Украины
S01E08 Battle of Berlin | Битва за Берлин

MediaInfo

General
Идентификатор : 1 (0x1)
Полное имя : H:\REC IPTV\History\Soviet Storm\Soviet.Storm.S01.DVB.MPEG2-BS666\Soviet.Storm.S01E05.The.Battle.of.Kursk.DVB.MPEG2-BS666.ts
Формат : MPEG-TS
Размер файла : 1.20 GiB
Продолжительность : 44mn 50s
Режим общего битрейта : Variable
Общий поток : 3 845 Kbps
Максимальный общий битрейт : 35.5 Mbps
Video
Идентификатор : 4113 (0x1011)
Идентификатор меню : 1 (0x1)
Формат : MPEG Video
Версия формата : Version 2
Профиль формата : Main@Main
Параметр BVOP формата : Yes
Параметр матрицы формата : Custom
Параметр GOP формата : M=3, N=12
Идентификатор кодека : 2
Продолжительность : 44mn 50s
Вид битрейта : Variable
Битрейт : 3 396 Kbps
Максимальный битрейт : 15.0 Mbps
Ширина : 720 pixels
Высота : 576 pixels
Соотношение сторон : 16:9
Частота кадров : 25.000 fps
Стандарт вещания : PAL
Цветовое пространство : YUV
Субдискретизация насыщенности : 4:2:0
Битовая глубина : 8 bits
Тип развёртки : Interlaced
Порядок развёртки : Top Field First
Метод сжатия : Lossy
Бит/(Пиксели*Кадры) : 0.328
Размер потока : 1.06 GiB (88%)
Audio #1
Идентификатор : 4352 (0x1100)
Идентификатор меню : 1 (0x1)
Формат : MPEG Audio
Версия формата : Version 1
Профиль формата : Layer 2
Идентификатор кодека : 4
Продолжительность : 44mn 50s
Вид битрейта : Constant
Битрейт : 128 Kbps
Каналы : 2 channels
Частота : 48.0 KHz
Метод сжатия : Lossy
Размер потока : 41.0 MiB (3%)
Язык : Russian
Audio #2
Идентификатор : 4353 (0x1101)
Идентификатор меню : 1 (0x1)
Формат : MPEG Audio
Версия формата : Version 1
Профиль формата : Layer 2
Идентификатор кодека : 4
Продолжительность : 44mn 50s
Вид битрейта : Constant
Битрейт : 128 Kbps
Каналы : 2 channels
Частота : 48.0 KHz
Метод сжатия : Lossy
Размер потока : 41.0 MiB (3%)
Язык : English

Скриншоты

Анаморф Скриншоты


_________________
Показать сообщения:    

Текущее время: Сегодня 11:06

Часовой пояс: GMT



Вы не можете начинать темы
Вы не можете отвечать на сообщения
Вы не можете редактировать свои сообщения
Вы не можете удалять свои сообщения
Вы не можете голосовать в опросах
Вы не можете прикреплять файлы к сообщениям
Вы не можете скачивать файлы