Ивановский Торрент трекер
Яндекс.Погода
 

[Цитировать]
HUNTER

Собибор Непокорнные
Год выпуска: 2013
Страна: Россия
Жанр: документально-исторический
Продолжительность: 00:42:39
Перевод: Не требуется
Русские субтитры: нет
Режиссер: Ольга Товма
Описание: Этот фильм рассказывает о единственном за всю историю второй мировой войны успешном восстании заключенных в немецком лагере смерти Собибор и о судьбе его руководителя советского офицера Александра Печерского.
Производство: Россия 1
Автор: Сергей Пашков
качество: DVDRip
формат: AVI
Видео: XVID 720x380 1249kbps 25fps
Аудио: MP3 48000Hz stereo 256kbps
сэмпл http://multi-up.com/921269

MediaInfo

Complete name : E:\Zet\Собибор_Непокоренные.avi
Format : AVI
Format/Info : Audio Video Interleave
File size : 462 MiB
Duration : 42mn 39s
Overall bit rate : 1 515 Kbps
Recorded date : 2013-10-29T12:01:48.00351+04:00
Writing library : VirtualDub build 32817/release
Video
ID : 0
Format : MPEG-4 Visual
Format profile : Advanced Simple@L5
Format settings, BVOP : 2
Format settings, QPel : No
Format settings, GMC : No warppoints
Format settings, Matrix : Default (H.263)
Muxing mode : Packed bitstream
Codec ID : XVID
Codec ID/Hint : XviD
Duration : 42mn 39s
Bit rate : 1 249 Kbps
Width : 720 pixels
Height : 380 pixels
Display aspect ratio : 1.895
Frame rate : 25.000 fps
Color space : YUV
Chroma subsampling : 4:2:0
Bit depth : 8 bits
Scan type : Progressive
Compression mode : Lossy
Bits/(Pixel*Frame) : 0.183
Stream size : 381 MiB (82%)
Writing library : XviD 64
Audio
ID : 1
Format : MPEG Audio
Format version : Version 1
Format profile : Layer 3
Mode : Joint stereo
Codec ID : 55
Codec ID/Hint : MP3
Duration : 42mn 39s
Bit rate mode : Constant
Bit rate : 256 Kbps
Channel(s) : 2 channels
Sampling rate : 48.0 KHz
Compression mode : Lossy
Stream size : 78.1 MiB (17%)
Alignment : Split accross interleaves
Interleave, duration : 40 ms (1.00 video frame)
Interleave, preload duration : 500 ms

Скриншоты



Показать сообщения:    

Текущее время: 15-Дек 10:31

Часовой пояс: UTC ± 0


Вы не можете начинать темы
Вы не можете отвечать на сообщения
Вы не можете редактировать свои сообщения
Вы не можете удалять свои сообщения
Вы не можете голосовать в опросах
Вы не можете прикреплять файлы к сообщениям
Вы не можете скачивать файлы

!ВНИМАНИЕ!
Сайт не предоставляет электронные версии произведений, а занимается лишь коллекционированием и каталогизацией ссылок, присылаемых и публикуемых на форуме нашими читателями. Если вы являетесь правообладателем какого-либо представленного материала и не желаете, чтобы ссылка на него находилась в нашем каталоге, свяжитесь с нами, и мы незамедлительно удалим ее. Файлы для обмена на трекере предоставлены пользователями сайта, и администрация не несет ответственности за их содержание. Просьба не заливать файлы, защищенные авторскими правами, а также файлы нелегального содержания!