Важное объявление!
У Нас Все раздачи мультитрекерные, при нуле пиров в релизах, можете смело вставать на закачку!
 
Автор Сообщение

HUNTER

Стаж:
4 года 10 месяцев
Сообщений:
65542

Репутация: 101

[+] [-]
Вне форума [Профиль] [ЛС]

Собачья какашка / Doggy Poo
Страна: Корея
Жанр: Анимация
Продолжительность: 33:46
Год выпуска: 2003
Перевод: Одноголосый закадровый
Русские субтитры: нет
Режиссёр: О-Сунг Квон
Описание: Doggy Poo — это герой корейского мультфильма о собачьей какашке. Мультик вовсе не пародия, а самая настоящая философская притча о предназначении каждого в этой жизни. История такова: «Doggy Poo живет около дороги своей жизнью, но при этом он видит свое назначение в жизни. Блуждая по миру он должен встретить того, кто наконец-то объяснит ему смысл его существования». Корейское произведение получило одобрение критиков со всего мира и, даже, завоевало несколько премий.
Доп. информация: по субтитрам с других раздач
Семпл: http://multi-up.com/1060362
Качество: DVDRip
Формат: MP4
Видео: DivX 3 640x464 23.976fps
Аудио: Dolby AC3 48000Hz stereo 192kbps
Субтитры: отсутствуют

Подробные технические данные

GeneralComplete name : E:\Наш\наши фильмы\Собачья какашка.aviFormat : AVIFormat/Info : Audio Video InterleaveFile size : 633 MiBDuration : 33mn 46sOverall bit rate : 2 620 KbpsWriting application : VirtualDubMod 1.5.10.2 (build 2540/release)Writing library : VirtualDubMod build 2540/release
VideoID : 0Format : MPEG-4 VisualCodec ID : DIV3Codec ID/Hint : DivX 3 LowDuration : 33mn 46sBit rate : 2 418 KbpsWidth : 640 pixelsHeight : 464 pixelsDisplay aspect ratio : 1.379Frame rate : 23.976 fpsColor space : YUVChroma subsampling : 4:2:0Bit depth : 8 bitsCompression mode : LossyBits/(Pixel*Frame) : 0.340Stream size : 584 MiB (92%)
AudioID : 1Format : AC-3Format/Info : Audio Coding 3Mode extension : CM (complete main)Format settings, Endianness : BigCodec ID : 2000Duration : 33mn 46sBit rate mode : ConstantBit rate : 192 KbpsChannel(s) : 2 channelsChannel positions : Front: L RSampling rate : 48.0 KHzBit depth : 16 bitsCompression mode : LossyStream size : 46.4 MiB (7%)Alignment : Split accross interleavesInterleave, duration : 42 ms (1.00 video frame)Interleave, preload duration : 500 ms

Скриншоты


_________________
Показать сообщения:    

Текущее время: Сегодня 14:32

Часовой пояс: GMT



Вы не можете начинать темы
Вы не можете отвечать на сообщения
Вы не можете редактировать свои сообщения
Вы не можете удалять свои сообщения
Вы не можете голосовать в опросах
Вы не можете прикреплять файлы к сообщениям
Вы не можете скачивать файлы