Ивановский Торрент трекер
Яндекс.Погода
 

[Цитировать]
palych74

Собака
Жанр: драма
Год выпуска: 2011
Продолжительность: 01:25:10
Режиссёр: Фарид Давлетшин
В ролях: Рустем Гайнуллин, Александр Купцов, Гульнара Мулланурова, Фируза Зинатуллина, Александр Яндаев, Алсу Сабирова, Алексей Лабутин, Николай Прокофьев, Наталья Гайнуллина, Алла Власова, Рустем Мансуров, Олеся Кулакова, Ринат Галимов, овчарка Айвенго
Описание: Сергей Караганов, бизнесмен и чиновник, поехав на охоту, в лесу случайно убивает собаку, принадлежавшую угрюмому егерю Егору, – овчарку по кличке Миро, горячо любимую, не раз спасавшую хозяина в смертельно опасных ситуациях. Караганов искренне раскаивается в случившемся, предлагает леснику деньги, даже помогает рыть могилу для пса. Тут-то в голове егеря и созревает план мести...
Доп. информация:
Сценарий: Фарид Давлетшин
Оператор: Хайдар Миндубаев
Художник: Наталья Гайнуллина
Композитор: Марат Ахметшин

Интересные факты

  • Фильм, снятый режиссером на собственные средства (50 тысяч рублей), был представлен на VIII Международном фестивале мусульманского кино (Казань, 2012), однако, никаких призов не получил.
  • В основе лежит реальная история – заметка в газете, которая содержала информацию о том, что егерь три года продержал человека в лесу за то, что тот убил его собаку. Тема заинтересовала режиссера, но реализовалась только 15 лет спустя. Работа над фильмом продолжалась в общей сложности около года. Картину сняли, показали несколько раз зрителям, выслушали комментарии и пожелания, потом пересняли и доработали отдельные моменты.
Качество видео: DVDScreener
Формат видео: AVI
Видео: 704x400 (1.76:1), 25 fps, XviD 1.2.1, 2230 kbps avg, 0.32 bit/pixel
Аудио: 48 kHz, AC3 Dolby Digital, 2/0 (L,R) ch, 224.00 kbps avg

MediaInfo

Полное имя : Sobaka.avi
Формат : AVI
Формат/Информация : Audio Video Interleave
Размер файла : 1,47 Гбайт
Продолжительность : 1 ч. 25 м.
Общий поток : 2464 Кбит/сек
Программа кодирования : VirtualDubMod 1.5.10.3 (build 2550/release)
Библиотека кодирования : VirtualDubMod build 2550/release
Видео
Идентификатор : 0
Формат : MPEG-4 Visual
Профиль формата : Advanced Simple@L5
Параметр BVOP формата : 1
Параметр QPel формата : Нет
Параметр GMC формата : Без точки перехода
Параметр матрицы формата : Выборочная
Идентификатор кодека : XVID
Идентификатор кодека/Подсказка : XviD
Продолжительность : 1 ч. 25 м.
Битрейт : 2230 Кбит/сек
Ширина : 704 пикселя
Высота : 400 пикселей
Соотношение сторон : 16:9
Частота кадров : 25,000 кадров/сек
Цветовое пространство : YUV
Субдискретизация насыщенности : 4:2:0
Битовая глубина : 8 бит
Тип развёртки : Прогрессивная
Метод сжатия : С потерями
Бит/(Пиксели*Кадры) : 0.317
Размер потока : 1,33 Гбайт (91%)
Библиотека кодирования : XviD 1.2.1 (UTC 2008-12-04)
Аудио
Идентификатор : 1
Формат : AC-3
Формат/Информация : Audio Coding 3
Расширение режима : CM (complete main)
Параметр Endianness формата : Big
Идентификатор кодека : 2000
Продолжительность : 1 ч. 25 м.
Вид битрейта : Постоянный
Битрейт : 224 Кбит/сек
Каналы : 2 канала
Расположение каналов : Front: L R
Частота : 48,0 КГц
Битовая глубина : 16 бит
Метод сжатия : С потерями
Размер потока : 136 Мбайт (9%)
Выравнивание : Разделение по промежуткам
Продолжительность промежутка : 40 мс. (1,00 видеокадр)
Время предзагрузки промежутка : 500 мс.

Скриншоты

0 человек читают эту тему: 0 пользователей, 0 скрытых пользователей, 0 гостей

Показать сообщения:    

Текущее время: 23-Авг 01:36

Часовой пояс: UTC - 1


Вы не можете начинать темы
Вы не можете отвечать на сообщения
Вы не можете редактировать свои сообщения
Вы не можете удалять свои сообщения
Вы не можете голосовать в опросах
Вы не можете прикреплять файлы к сообщениям
Вы не можете скачивать файлы

!ВНИМАНИЕ!
Сайт не предоставляет электронные версии произведений, а занимается лишь коллекционированием и каталогизацией ссылок, присылаемых и публикуемых на форуме нашими читателями. Если вы являетесь правообладателем какого-либо представленного материала и не желаете, чтобы ссылка на него находилась в нашем каталоге, свяжитесь с нами, и мы незамедлительно удалим ее. Файлы для обмена на трекере предоставлены пользователями сайта, и администрация не несет ответственности за их содержание. Просьба не заливать файлы, защищенные авторскими правами, а также файлы нелегального содержания!