Важное объявление!
У Нас Все раздачи мультитрекерные, при нуле пиров в релизах, можете смело вставать на закачку!
 
Автор Сообщение

HUNTER

Стаж:
4 года 8 месяцев
Сообщений:
62091

Репутация: 101

[+] [-]
Вне форума [Профиль] [ЛС]

Снупи и мелочь пузатая в кино
The Peanuts Movie
«Мечтать так мечтать»
-
Выпущено: США | Blue Sky Studios
Год выпуска: 2015
Жанр: комедия, приключения, семейный
Продолжительность: 01:28:06
Перевод:
Профессиональный (дублированный) | iTunes - русский
Профессиональный (дублированный) | iTunes - украинский
Оригинальная аудиодорожка: английский
Cубтитры: русские (полные, форсированные), украинские (полные), английские
Режиссёр: Стив Мартино / Steve Martino
В ролях: Тромбоун Шорти, Ребекка Блум, Анастасия Бредихина, Франческа Капальди, Кристин Ченоуэт, Александр Гарфин, Ной Джонстон, Билл Мелендес, Хэдли Белль Миллер, Мика Ревелли-ОписаниеЧарли Браун, Снупи, Люси, Линус и другие полюбившиеся персонажи комиксов «Мелочь пузатая» впервые появятся на большом экране в полнометражном анимационном фильме, снятом с использованием последних достижений 3D-анимации. Снупи — самый симпатичный пес в мире — к тому же, классный пилот — отправляется в невероятные воздушные приключения в погоне за главным злодеем Красным Бароном. В это время у его приятеля Чарли Брауна начинаются поистине эпические приключения!-
«Снупи и мелочь пузатая в кино» (англ. The Peanuts Movie) — американский компьютерно-анимационный фильм, основанный на комиксах «Peanuts», а также пятый полнометражный мультфильм по мотивам этих комиксов. Produced by Blue Sky Studios
Релиз:

Sample

IMDb: 7.30 (17 886)-Качество видео: BDRip-AVC THE_PEANUTS_MOVIE_REMUX_HDCLUB
Формат видео: MKV
Видео: AVC 2171 Kbps 1136 x 614 (1.850) 23.976 fps
Аудио: Русский:AC-3 384 Kbps 6 channels, 48.0 KHz iTunes
Аудио 2: Украинский: 48 kHz, AC3 Dolby Digital, 2.0 (L,R), ~ 192 Кбит/с iTunes
Аудио 3: Eng: AC-3 448 Kbps 6 channels, 48.0 KHz
Формат субтитров: softsub (SRT)

Скриншоты




MediaInfo | Log

Log
x264 [info]: frame I:1202 Avg QP:13.21 size:119874
x264 [info]: frame P:33230 Avg QP:15.01 size: 24275
x264 [info]: frame B:92309 Avg QP:17.44 size: 5686
x264 [info]: consecutive B-frames: 2.9% 5.0% 18.4% 36.6% 20.4% 9.1% 2.5% 2.0% 0.9% 0.5% 0.5% 0.7% 0.2% 0.2% 0.2%
x264 [info]: mb I I16..4: 11.6% 58.4% 30.1%
x264 [info]: mb P I16..4: 1.1% 6.8% 2.2% P16..4: 25.1% 23.9% 10.3% 2.5% 0.4% skip:27.8%
x264 [info]: mb B I16..4: 0.2% 0.6% 0.2% B16..8: 23.2% 11.5% 2.2% direct: 2.4% skip:59.7% L0:44.0% L1:48.6% BI: 7.4%
x264 [info]: 8x8 transform intra:64.7% inter:44.6%
x264 [info]: direct mvs spatial:100.0% temporal:0.0%
x264 [info]: coded y,uvDC,uvAC intra: 83.0% 86.2% 74.4% inter: 10.6% 11.5% 5.3%
x264 [info]: i16 v,h,dc,p: 17% 24% 6% 53%
x264 [info]: i8 v,h,dc,ddl,ddr,vr,hd,vl,hu: 11% 15% 11% 8% 10% 9% 11% 10% 14%
x264 [info]: i4 v,h,dc,ddl,ddr,vr,hd,vl,hu: 15% 16% 6% 8% 12% 10% 12% 9% 12%
x264 [info]: i8c dc,h,v,p: 35% 34% 17% 14%
x264 [info]: Weighted P-Frames: Y:2.5% UV:1.8%
x264 [info]: ref P L0: 49.8% 6.0% 16.3% 6.3% 5.4% 4.5% 3.4% 2.0% 1.9% 1.8% 1.8% 0.5% 0.0%
x264 [info]: ref B L0: 67.2% 12.3% 7.0% 3.2% 3.8% 2.0% 1.8% 1.1% 0.9% 0.5%
x264 [info]: ref B L1: 92.5% 7.5%
x264 [info]: kb/s:2233.13
x264 [total]: encoded 126741 frames, 9.83 fps, 2233.13 kb/s, duration 3:34:52.90
Format : Matroska
Format version : Version 4 / Version 2
File size : 2.01 GiB
Duration : 1h 28mn
Overall bit rate : 3 260 Kbps
Encoded date : UTC 2016-02-29 12:06:41
Writing application : mkvmerge v6.7.0 ('Back to the Ground') 32bit built on Jan 8 2014 15:03:17
Writing library : libebml v1.3.0 + libmatroska v1.4.1
Video
ID : 1
Format : AVC
Format/Info : Advanced Video Codec
Format profile : High@L4.1
Format settings, CABAC : Yes
Format settings, ReFrames : 11 frames
Codec ID : V_MPEG4/ISO/AVC
Duration : 1h 28mn
Bit rate : 2 171 Kbps
Width : 1 136 pixels
Height : 614 pixels
Display aspect ratio : 1.85:1
Frame rate mode : Constant
Frame rate : 23.976 fps
Color space : YUV
Chroma subsampling : 4:2:0
Bit depth : 8 bits
Scan type : Progressive
Bits/(Pixel*Frame) : 0.130
Stream size : 1.34 GiB (67%)
Title : The Peanuts Movie (2015) [rutracker.org]
Writing library : x264 core 148 r2638kMod 7599210
Encoding settings : cabac=1 / ref=11 / deblock=1:-2:-2 / analyse=0x3:0x133 / me=umh / subme=11 / psy=1 / fade_compensate=0.00 / psy_rd=1.00:0.05 / mixed_ref=1 / me_range=48 / chroma_me=1 / trellis=2 / 8x8dct=1 / cqm=0 / deadzone=21,11 / fast_pskip=0 / chroma_qp_offset=-3 / threads=12 / lookahead_threads=3 / sliced_threads=0 / nr=0 / decimate=1 / interlaced=0 / bluray_compat=0 / constrained_intra=0 / fgo=0 / bframes=14 / b_pyramid=2 / b_adapt=2 / b_bias=0 / direct=3 / weightb=1 / open_gop=0 / weightp=2 / keyint=250 / keyint_min=23 / scenecut=40 / intra_refresh=0 / rc_lookahead=60 / rc=crf / mbtree=0 / crf=17.2000 / qcomp=0.60 / qpmin=0 / qpmax=69 / qpstep=4 / vbv_maxrate=50000 / vbv_bufsize=62500 / crf_max=0.0 / nal_hrd=none / filler=0 / ip_ratio=1.40 / pb_ratio=1.30 / aq=3:0.90
Language : English
Default : Yes
Forced : No
Audio #1
ID : 2
Format : AC-3
Format/Info : Audio Coding 3
Mode extension : CM (complete main)
Format settings, Endianness : Big
Codec ID : A_AC3
Duration : 1h 28mn
Bit rate mode : Constant
Bit rate : 384 Kbps
Channel(s) : 6 channels
Channel positions : Front: L C R, Side: L R, LFE
Sampling rate : 48.0 KHz
Compression mode : Lossy
Stream size : 242 MiB (12%)
Title : DUB [iTunes]
Language : Russian
Default : Yes
Forced : No
Audio #2
ID : 3
Format : AC-3
Format/Info : Audio Coding 3
Mode extension : CM (complete main)
Format settings, Endianness : Big
Codec ID : A_AC3
Duration : 1h 28mn
Bit rate mode : Constant
Bit rate : 192 Kbps
Channel(s) : 2 channels
Channel positions : Front: L R
Sampling rate : 48.0 KHz
Compression mode : Lossy
Stream size : 121 MiB (6%)
Title : DUB [iTunes]
Language : Ukrainian
Default : No
Forced : No
Audio #3
ID : 4
Format : AC-3
Format/Info : Audio Coding 3
Mode extension : CM (complete main)
Format settings, Endianness : Big
Codec ID : A_AC3
Duration : 1h 28mn
Bit rate mode : Constant
Bit rate : 448 Kbps
Channel(s) : 6 channels
Channel positions : Front: L C R, Side: L R, LFE
Sampling rate : 48.0 KHz
Compression mode : Lossy
Stream size : 282 MiB (14%)
Title : Original
Language : English
Default : No
Forced : No
Text #1
ID : 5
Format : UTF-8
Codec ID : S_TEXT/UTF8
Codec ID/Info : UTF-8 Plain Text
Title : Forced
Language : Russian
Default : Yes
Forced : No
Text #2
ID : 6
Format : UTF-8
Codec ID : S_TEXT/UTF8
Codec ID/Info : UTF-8 Plain Text
Title : Full
Language : Russian
Default : No
Forced : No
Text #3
ID : 7
Format : UTF-8
Codec ID : S_TEXT/UTF8
Codec ID/Info : UTF-8 Plain Text
Title : Full
Language : Ukrainian
Default : No
Forced : No
Text #4
ID : 8
Format : UTF-8
Codec ID : S_TEXT/UTF8
Codec ID/Info : UTF-8 Plain Text
Title : SDH
Language : English
Default : No
Forced : No
Menu
00:00:00.000 : en:00:00:00.000
00:05:19.110 : en:00:05:19.110
00:07:58.226 : en:00:07:58.226
00:11:02.912 : en:00:11:02.912
00:13:35.105 : en:00:13:35.105
00:17:49.192 : en:00:17:49.192
00:20:56.046 : en:00:20:56.046
00:23:27.948 : en:00:23:27.948
00:25:35.616 : en:00:25:35.616
00:28:08.228 : en:00:28:08.228
00:32:36.537 : en:00:32:36.537
00:36:23.179 : en:00:36:23.179
00:41:14.137 : en:00:41:14.137
00:44:19.864 : en:00:44:19.864
00:47:57.331 : en:00:47:57.331
00:51:47.436 : en:00:51:47.436
00:55:29.534 : en:00:55:29.534
01:00:15.193 : en:01:00:15.193
01:03:27.094 : en:01:03:27.094
01:04:53.431 : en:01:04:53.431
01:08:59.885 : en:01:08:59.885
01:12:24.547 : en:01:12:24.547
01:16:15.487 : en:01:16:15.487
01:17:21.011 : en:01:17:21.011

_________________
Показать сообщения:    

Текущее время: Сегодня 16:22

Часовой пояс: GMT



Вы не можете начинать темы
Вы не можете отвечать на сообщения
Вы не можете редактировать свои сообщения
Вы не можете удалять свои сообщения
Вы не можете голосовать в опросах
Вы не можете прикреплять файлы к сообщениям
Вы не можете скачивать файлы
Наши партнеры: интернет магазин Ивановского трикотажа textilla.ru