Важное объявление!
У Нас Все раздачи мультитрекерные, при нуле пиров в релизах, можете смело вставать на закачку!
 
Автор Сообщение

HUNTER

Стаж:
4 года 6 месяцев
Сообщений:
60994

Репутация: 101

[+] [-]
Вне форума [Профиль] [ЛС]

Сноуборд. От азов до фрирайда / Learn to Board. Watch. Learn. Ride-

Год выпуска: 1999
Страна: США
Сайт производителя: отсутствует
Тематика: Спорт
Тип материала: обучающее видео-Продолжительность: 00:40:00
Автор: Уоррен Миллер-Язык: Русский - Профессиональный (одноголосый)
Субтитры: отсутствуют-Описание: Лучший обучающий фильм по сноубордингу от знаменитого мастера сноубордического кино Уоррена Миллера.Великолепные уроки для новичков и прорайдеров, для обучающихся и сомневающихся, для всех, кто любит хорошее катание и отличное кино. Вы получите ответ на все свои вопросы: с чего начать, какую доску выбрать, как одеваться, где и как кататься. Вы научитесь стоять, скользить, поворачивать и тормозить на доске, изучите: прыжки и фигуры. Вам помогут избежать ошибок новичков и покажут тренировочные сессии профессионалов.-Качество: DVD5
Формат: DVD Video
Видео кодек: MPEG2
Аудио кодек: AC3
Видео: 720х576 25, 000fps, MPEG Video (PAL 4:3),7143kbps,0.689bit/pixel
Аудио#1: Русский: 48.0 kHz, AC3, (Front: L R) , 2 ch ~ 192 Kbps avg[Профессиональный (одноголосый)]
Аудио#2: Английский: 48.0 kHz, AC3, (Front: L R) , 2 ch ~ 192 Kbps avg[Оригинал]-

Доп. информация

Лучший обучающий фильм по сноубордингу от знаменитого мастера сноубордического кино Уоррена Миллера.

MediaInfo

Код: copyText_writeLink('this.parentNode.parentNode.nextSibling.nextSibling'); General
Complete name : E:\Обучение\Snowboard\VIDEO_TS\VTS_03_1.VOB
Format : MPEG-PS
File size : 1 024 MiB
Duration : 18mn 38s
Overall bit rate mode : Variable
Overall bit rate : 7 680 Kbps
Writing library : (c) 1997-2003 Womble Multimedia, Inc. / MPEG-VCR V3.14 (08/2003) / Oct 28 2003
Video
ID : 224 (0xE0)
Format : MPEG Video
Format version : Version 2
Format profile : Main@Main
Format settings, BVOP : Yes
Format settings, Matrix : Custom
Duration : 18mn 38s
Bit rate mode : Variable
Bit rate : 7 143 Kbps
Maximum bit rate : 9 000 Kbps
Width : 720 pixels
Height : 576 pixels
Display aspect ratio : 4:3
Frame rate : 25.000 fps
Standard : PAL
Color space : YUV
Chroma subsampling : 4:2:0
Bit depth : 8 bits
Scan type : Interlaced
Scan order : Top Field First
Compression mode : Lossy
Bits/(Pixel*Frame) : 0.689
Stream size : 952 MiB (93%)
Writing library : (c) 1997-2003 Womble Multimedia, Inc. / MPEG-VCR V3.14 (08/2003) / Oct 28 2003
Audio #1
ID : 189 (0xBD)-128 (0x80)
Format : AC-3
Format/Info : Audio Coding 3
Mode extension : CM (complete main)
Format settings, Endianness : Big
Muxing mode : DVD-Video
Duration : 18mn 38s
Bit rate mode : Constant
Bit rate : 192 Kbps
Channel(s) : 2 channels
Channel positions : Front: L R
Sampling rate : 48.0 KHz
Bit depth : 16 bits
Compression mode : Lossy
Delay relative to video : -80ms
Stream size : 25.6 MiB (2%)
Audio #2
ID : 189 (0xBD)-129 (0x81)
Format : AC-3
Format/Info : Audio Coding 3
Mode extension : CM (complete main)
Format settings, Endianness : Big
Muxing mode : DVD-Video
Duration : 18mn 38s
Bit rate mode : Constant
Bit rate : 192 Kbps
Channel(s) : 2 channels
Channel positions : Front: L R
Sampling rate : 48.0 KHz
Bit depth : 16 bits
Compression mode : Lossy
Delay relative to video : -80ms
Stream size : 25.6 MiB (2%)
Menu
- -

_________________
Показать сообщения:    

Текущее время: Сегодня 18:06

Часовой пояс: GMT



Вы не можете начинать темы
Вы не можете отвечать на сообщения
Вы не можете редактировать свои сообщения
Вы не можете удалять свои сообщения
Вы не можете голосовать в опросах
Вы не можете прикреплять файлы к сообщениям
Вы не можете скачивать файлы
Наши партнеры: интернет магазин Ивановского трикотажа textilla.ru