Важное объявление!
У Нас Все раздачи мультитрекерные, при нуле пиров в релизах, можете смело вставать на закачку!
 
Автор Сообщение

HUNTER

Стаж:
4 года 6 месяцев
Сообщений:
60950

Репутация: 101

[+] [-]
Вне форума [Профиль] [ЛС]

Снова об автострадных танках
Год выпуска: 2013
Страна: Россия
Жанр: исторический
Продолжительность: 00:09:06
Перевод: Не требуется
Русские субтитры: нет
Описание: Борис Юлин об особенностях вооружения во Второй мировой войне.
качество: WEBRip
формат: AVI
Видео: MPEG4, XviD, 720x406 (16/9), 25.000 fps, 763 Kbps (0.104 bit/pixel)
Аудио: MP3, 48.0 KHz, 2 ch, 309 Kbps, VBR

MediaInfo

General
Complete name : C:\Documents and Settings\Admin\Рабочий стол\AVI\Снова об автострадных танках.avi
Format : AVI
Format/Info : Audio Video Interleave
File size : 70.5 MiB
Duration : 9mn 5s
Overall bit rate : 1 084 Kbps
Writing application : MEncoder Sherpya-SVN-r32492-4.2.5
Writing library : MPlayer
Video
ID : 0
Format : MPEG-4 Visual
Format profile : Simple@L3
Format settings, BVOP : No
Format settings, QPel : No
Format settings, GMC : No warppoints
Format settings, Matrix : Default (H.263)
Codec ID : XVID
Codec ID/Hint : XviD
Duration : 9mn 5s
Bit rate : 763 Kbps
Width : 720 pixels
Height : 406 pixels
Display aspect ratio : 16:9
Frame rate : 25.000 fps
Color space : YUV
Chroma subsampling : 4:2:0
Bit depth : 8 bits
Scan type : Progressive
Compression mode : Lossy
Bits/(Pixel*Frame) : 0.104
Stream size : 49.6 MiB (70%)
Writing library : XviD 1.2.1 (UTC 2008-12-04)
Audio
ID : 1
Format : MPEG Audio
Format version : Version 1
Format profile : Layer 3
Mode : Joint stereo
Codec ID : 55
Codec ID/Hint : MP3
Duration : 9mn 5s
Bit rate mode : Variable
Bit rate : 309 Kbps
Channel(s) : 2 channels
Sampling rate : 48.0 KHz
Compression mode : Lossy
Stream size : 20.1 MiB (28%)
Alignment : Aligned on interleaves
Interleave, duration : 24 ms (0.60 video frame)
Interleave, preload duration : 452 ms

Скриншоты


_________________
Показать сообщения:    

Текущее время: Сегодня 03:11

Часовой пояс: GMT



Вы не можете начинать темы
Вы не можете отвечать на сообщения
Вы не можете редактировать свои сообщения
Вы не можете удалять свои сообщения
Вы не можете голосовать в опросах
Вы не можете прикреплять файлы к сообщениям
Вы не можете скачивать файлы
Наши партнеры: интернет магазин Ивановского трикотажа textilla.ru