Важное объявление!
У Нас Все раздачи мультитрекерные, при нуле пиров в релизах, можете смело вставать на закачку!
 
Автор Сообщение

HUNTER

Стаж:
4 года 9 месяцев
Сообщений:
65013

Репутация: 101

[+] [-]
Вне форума [Профиль] [ЛС]

Снова к звёздам
Дата/Год выпуска: 1961
Страна: СССР
Жанр: Документальный
Продолжительность: 00:47:25
Перевод: Не требуется
Режиссёр: Дмитрий Боголепов, Григорий Косенко
Описание: Оригинальный фильм про полёт второго космонавта - Германа Титова.
Сэмпл: SendSpace
Качество: VHSRip
Формат: AVI
Видео: XviD, 640x480, 4:3, 943 kbps, 25 fps
Аудио: AC3, 96 kbps, 48.0 KHz, 1 ch

MediaInfo

GeneralComplete name : M:\Снова к звездам 1961.aviFormat : AVIFormat/Info : Audio Video InterleaveFile size : 356 MiBDuration : 47mn 25sOverall bit rate : 1 048 KbpsWriting application : VirtualDubMod 1.5.10.3 (build 2550/release)Writing library : VirtualDubMod build 2550/release
VideoID : 0Format : MPEG-4 VisualFormat profile : Advanced Simple@L5Format settings, BVOP : 1Format settings, QPel : NoFormat settings, GMC : No warppointsFormat settings, Matrix : Default (H.263)Codec ID : XVIDCodec ID/Hint : XviDDuration : 47mn 25sBit rate : 943 KbpsWidth : 640 pixelsHeight : 480 pixelsDisplay aspect ratio : 4:3Frame rate : 25.000 fpsOriginal frame rate : 23.976 fpsColor space : YUVChroma subsampling : 4:2:0Bit depth : 8 bitsScan type : ProgressiveCompression mode : LossyBits/(Pixel*Frame) : 0.123Stream size : 320 MiB (90%)Writing library : XviD 1.2.1 (UTC 2008-12-04)
AudioID : 1Format : AC-3Format/Info : Audio Coding 3Mode extension : CM (complete main)Format settings, Endianness : BigCodec ID : 2000Duration : 47mn 25sBit rate mode : ConstantBit rate : 96.0 KbpsChannel(s) : 1 channelChannel positions : Front: CSampling rate : 48.0 KHzBit depth : 16 bitsCompression mode : LossyStream size : 32.6 MiB (9%)Alignment : Split accross interleavesInterleave, duration : 40 ms (1.00 video frame)Interleave, preload duration : 500 ms

Скриншоты


_________________
Показать сообщения:    

Текущее время: Сегодня 00:11

Часовой пояс: GMT



Вы не можете начинать темы
Вы не можете отвечать на сообщения
Вы не можете редактировать свои сообщения
Вы не можете удалять свои сообщения
Вы не можете голосовать в опросах
Вы не можете прикреплять файлы к сообщениям
Вы не можете скачивать файлы