Ивановский Торрент трекер
Яндекс.Погода
Статистика раздачи
Размер:  21.09 GB   |    Зарегистрирован:  1 год 8 месяцев   |    Скачан:  0 раз

Полного источника не было: Никогда

 
     
 
 
 

[Цитировать]
HUNTER

Снежный человек / Отвратительный снежный человек / The Abominable Snowman
-Страна: США
Жанр: фантастика, приключения
Год выпуска: 1957
Продолжительность: 01:25:07-Перевод: Одноголосый закадровый - fiendover-Cубтитры: русские
Оригинальная аудиодорожка: английский-Режиссер: Вэл Гест / Val Guest-В ролях: Форрест Такер, Питер Кашинг, Морин Коннелл, Ричард Уоттис, Роберт Браун, Майкл Брилл, Вульф Моррис, Арнольд Марле, Энтони Чинн, Фред Джонсон-Описание:
Английский ботаник и его американский товарищ организуют экспедицию в Гималайские горы с целью выследить снежного человека. Но мотивы у каждого свои: в то время как англичанином движет научный интерес, американец более заинтересован в коммерческой выгоде, которую может сулить находка легендарного йети.-Сэмпл: Скачать-Тип релиза: BDRemux 1080p
Контейнер: MKV-Видео: MPEG-4 AVC Video; 34987 kbps; 1080p; 29.97 fps; 16:9; High Profile 4.1
Аудио 1: Russian; AC3; 48.0 KHz; 2ch; 192 Kbps
Аудио 2: English; AC3; 48.0 KHz; 2ch; 448 Kbps

MediaInfo

Format : Matroska
Format version : Version 4 / Version 2
File size : 21.1 GiB
Duration : 1h 25mn
Overall bit rate mode : Variable
Overall bit rate : 35.5 Mbps
Encoded date : UTC 2016-04-03 06:50:04
Writing application : mkvmerge v8.3.0 ('Over the Horizon') 64bit
Writing library : libebml v1.3.1 + libmatroska v1.4.2
Attachements : poster.jpg
DURATION : 01:24:54.464000000
NUMBER_OF_FRAMES : 159202
NUMBER_OF_BYTES : 122267136
_STATISTICS_WRITING_APP : mkvmerge v8.3.0 ('Over the Horizon') 64bit
_STATISTICS_WRITING_DATE_UT : 2016-04-03 06:50:04
_STATISTICS_TAGS : BPS DURATION NUMBER_OF_FRAMES NUMBER_OF_BYTES
Video
ID : 1
Format : AVC
Format/Info : Advanced Video Codec
Format profile : High@L4.1
Format settings, CABAC : Yes
Format settings, ReFrames : 4 frames
Codec ID : V_MPEG4/ISO/AVC
Duration : 1h 25mn
Bit rate mode : Variable
Bit rate : 34.1 Mbps
Maximum bit rate : 39.0 Mbps
Width : 1 920 pixels
Height : 1 080 pixels
Display aspect ratio : 16:9
Frame rate mode : Constant
Frame rate : 29.940 fps
Original frame rate : 29.970 fps
Color space : YUV
Chroma subsampling : 4:2:0
Bit depth : 8 bits
Scan type : Interlaced
Scan order : Top Field First
Bits/(Pixel*Frame) : 0.550
Stream size : 20.3 GiB (96%)
Default : Yes
Forced : No
Color range : Limited
Color primaries : BT.709
Transfer characteristics : BT.709
Matrix coefficients : BT.709
Audio #1
ID : 2
Format : AC-3
Format/Info : Audio Coding 3
Mode extension : CM (complete main)
Format settings, Endianness : Big
Codec ID : A_AC3
Duration : 1h 25mn
Bit rate mode : Constant
Bit rate : 192 Kbps
Channel(s) : 2 channels
Channel positions : Front: L R
Sampling rate : 48.0 KHz
Compression mode : Lossy
Stream size : 117 MiB (1%)
Title : VO fiendover
Language : Russian
Default : Yes
Forced : No
Audio #2
ID : 3
Format : AC-3
Format/Info : Audio Coding 3
Mode extension : CM (complete main)
Format settings, Endianness : Big
Codec ID : A_AC3
Duration : 1h 25mn
Bit rate mode : Constant
Bit rate : 448 Kbps
Channel(s) : 2 channels
Channel positions : Front: L R
Sampling rate : 48.0 KHz
Compression mode : Lossy
Stream size : 273 MiB (1%)
Language : English
Default : No
Forced : No
Text
ID : 4
Format : UTF-8
Codec ID : S_TEXT/UTF8
Codec ID/Info : UTF-8 Plain Text
Language : Russian
Default : No
Forced : No

Скриншоты

[iv-torrents.ru].t55943.torrent
Торрент: Зарегистрирован [ 2016-04-06 17:09 ] · 4A9667D83F52EBD89EEAFC43F29FD571987CCF81

Скачать .torrent

Скачать

106 KB

Статус: проверено
Скачан: 0 раз
Размер: 21.09 GB
terms.php


Показать сообщения:    

Текущее время: 15-Дек 22:02

Часовой пояс: UTC ± 0


Вы не можете начинать темы
Вы не можете отвечать на сообщения
Вы не можете редактировать свои сообщения
Вы не можете удалять свои сообщения
Вы не можете голосовать в опросах
Вы не можете прикреплять файлы к сообщениям
Вы можете скачивать файлы

!ВНИМАНИЕ!
Сайт не предоставляет электронные версии произведений, а занимается лишь коллекционированием и каталогизацией ссылок, присылаемых и публикуемых на форуме нашими читателями. Если вы являетесь правообладателем какого-либо представленного материала и не желаете, чтобы ссылка на него находилась в нашем каталоге, свяжитесь с нами, и мы незамедлительно удалим ее. Файлы для обмена на трекере предоставлены пользователями сайта, и администрация не несет ответственности за их содержание. Просьба не заливать файлы, защищенные авторскими правами, а также файлы нелегального содержания!