Важное объявление!
У Нас Все раздачи мультитрекерные, при нуле пиров в релизах, можете смело вставать на закачку!
 
Автор Сообщение

HUNTER

Стаж:
4 года 7 месяцев
Сообщений:
61531

Репутация: 101

[+] [-]
Вне форума [Профиль] [ЛС]

Снежная крепость Адольфа Гитлера
Год выпуска: 2005
Страна: Россия, АНО «Телеателье-М»
Жанр: Документальный, история, война
Продолжительность: 00:39:01
Перевод: Не требуется
Русские субтитры: нет
Режиссер: Андрей Розов
Описание: Этот фильм об одной из малоизвестной странице Великой Отечественной войны, умышленно забытой в советские годы. Маленький городок Холм в Новгородской области. До Москвы чуть более 400 км. Немцы будут удерживать здесь оборону 920 дней. Наши войска вернут Холм только после снятия Ленинградской блокады и освобождения большей части Украины.
Холм превратится в крепость без крепостных стен, и какой либо техники. Все тяжелое вооружение будет состоять из четырех маленьких пушек. Укрепления построят из снега. Крепость «Холм» станет не только редким военным казусом, но и сыграет удивительную роль в дальнейших событиях Большой войны…
Доп. информация: IPTVRip by alf62

качество: IPTVRip
формат: AVI
Видео: 704x528 (1.33:1), 25 fps, DivX ~1584 kbps avg, 0.17 bit/pixel
Аудио: 48 kHz, MPEG Layer 3, 2 ch, ~128.00 kbps avg

MediaInfo

General
Complete name : E:\Торенты\Rutracker.org\Снежная крепость Адольфа Гитлера\Snezhnaja.krepost.Adolfa.Gitlera.2005.DivX.IPTVRip.alf62.avi
Format : AVI
Format/Info : Audio Video Interleave
File size : 481 MiB
Duration : 39mn 0s
Overall bit rate : 1 723 Kbps
Writing application : VirtualDubMod 1.5.10.3 | www.virtualdub-fr.org || (build 2550/release)
Writing library : VirtualDubMod build 2550/release
Video
ID : 0
Format : MPEG-4 Visual
Format profile : Advanced Simple@L5
Format settings, BVOP : 2
Format settings, QPel : No
Format settings, GMC : No warppoints
Format settings, Matrix : Default (MPEG)
Codec ID : DX50
Codec ID/Hint : DivX 5
Duration : 39mn 0s
Bit rate : 1 585 Kbps
Width : 704 pixels
Height : 528 pixels
Display aspect ratio : 4:3
Frame rate : 25.000 fps
Color space : YUV
Chroma subsampling : 4:2:0
Bit depth : 8 bits
Scan type : Progressive
Compression mode : Lossy
Bits/(Pixel*Frame) : 0.171
Stream size : 442 MiB (92%)
Writing library : XviD 73
Audio
ID : 1
Format : MPEG Audio
Format version : Version 1
Format profile : Layer 3
Codec ID : 55
Codec ID/Hint : MP3
Duration : 39mn 0s
Bit rate mode : Constant
Bit rate : 128 Kbps
Channel(s) : 2 channels
Sampling rate : 48.0 KHz
Compression mode : Lossy
Stream size : 35.7 MiB (7%)
Alignment : Aligned on interleaves
Interleave, duration : 40 ms (1.00 video frame)
Interleave, preload duration : 504 ms
Writing library : LAME3.99r
Encoding settings : -m s -V 4 -q 2 -lowpass 17 -b 128

_________________
Показать сообщения:    

Текущее время: Сегодня 10:46

Часовой пояс: GMT



Вы не можете начинать темы
Вы не можете отвечать на сообщения
Вы не можете редактировать свои сообщения
Вы не можете удалять свои сообщения
Вы не можете голосовать в опросах
Вы не можете прикреплять файлы к сообщениям
Вы не можете скачивать файлы
Наши партнеры: интернет магазин Ивановского трикотажа textilla.ru